[其它] 日暮 Nightfall.2016.SUBBED.1080p.BluRay.x264-BiPOLAR 594.79MB

[复制链接]
蓝鸟 发表于 2020-10-15 12:32:07 | 显示全部楼层 |阅读模式 打印 上一主题 下一主题

日暮 Nightfall.2016.SUBBED.1080p.BluRay.x264-BiPOLAR 594.79MB

日暮 Nightfall.2016.SUBBED.1080p.BluRay.x264-BiPOLAR 594.79MB



译  名 日暮
片  名 Nightfall
年  代 2016
产  地 泰国 / 新加坡
类  别 短片 / 历史
语  言 英语
上映日期 2016-05-05(德国)
IMDb评分  5.5/10 from 8 users
IMDb链接  https://www.imdb.com/title/tt7921558
豆瓣评分 0/10 from 0 users
豆瓣链接 https://movie.douban.com/subject/30173699/
片  长 15分钟
导  演 安诺查·苏薇查柯邦 Anocha Suwichakornpong
主  演 安诺查·苏薇查柯邦 Anocha Suwichakornpong


标  签 泰国 | SuwichakornpongAnocha

简  介  

  The chronicles of a day in the life of a nameless woman as she wanders around Singapore. Part documentary part video essay, "Nightfall" is a fictionalized account of Suwichakornpong"s time spent during a residency researching Thai politics in a foreign land.

  谷歌为您翻译:
  一位无名女子在新加坡徘徊的一天中的编年史。纪录片部分录像文章“ Nightfall”是虚构的描述Suwichakornpong在外国居住期间研究泰国政治时所花费的时间。

  腾讯为您翻译:
  一位无名女子在新加坡游荡的一天生活的编年史。“夜幕降临”部分是纪录片,另一部分是视频散文,它虚构了素威查孔蓬在异国他乡研究泰国政治期间度过的时光。

  本站为您翻译:
  这是一个无名女子在新加坡游荡的一天生活的编年史。一部分是纪录片,一部分是视频短文,《夜幕降临》是一部虚构的小说,讲述了苏维查科恩蓬在外国研究泰国政治期间的生活。




该资源信息参数
  • Video
  • ID                                       : 1
  • Format                                   : AVC
  • Format/Info                              : Advanced Video Codec
  • Format profile                           : High@L4.1
  • Format settings                          : CABAC / 4 Ref Frames
  • Format settings, CABAC                   : Yes
  • Format settings, Reference frames        : 4 frames
  • Codec ID                                 : V_MPEG4/ISO/AVC
  • Duration                                 : 15 min 30 s
  • Bit rate                                 : 5 171 kb/s
  • Width                                    : 1 920 pixels
  • Height                                   : 1 080 pixels
  • Display aspect ratio                     : 16:9
  • Frame rate mode                          : Constant
  • Frame rate                               : 23.976 (24000/1001/45378) FPS
  • Color space                              : YUV
  • Chroma subsampling                       : 4:2:0
  • Bit depth                                : 8 bits
  • Scan type                                : Progressive
  • Bits/(Pixel*Frame)                       : 0.104
  • Stream size                              : 573 MiB (96%)
  • Writing library                          : x264 core 161 r3018 db0d417
  • Encoding settings                        : cabac=1 / ref=4 / deblock=1:-3:-3 / analyse=0x3:0x133 / me=umh / subme=10 / psy=1 / psy_rd=1.00:0.15 / mixed_ref=1 / me_range=24 / chroma_me=1 / trellis=2 / 8x8dct=1 / cqm=0 / deadzone=21,11 / fast_pskip=1 / chroma_qp_offset=-3 / threads=18 / lookahead_threads=3 / sliced_threads=0 / nr=0 / decimate=1 / interlaced=0 / bluray_compat=0 / constrained_intra=0 / bframes=8 / b_pyramid=2 / b_adapt=2 / b_bias=0 / direct=3 / weightb=1 / open_gop=0 / weightp=2 / keyint=250 / keyint_min=23 / scenecut=40 / intra_refresh=0 / rc_lookahead=60 / rc=crf / mbtree=1 / crf=18.0 / qcomp=0.60 / qpmin=0 / qpmax=69 / qpstep=4 / ip_ratio=1.40 / aq=3:0.80
  • Language                                 : English
  • Default                                  : Yes
  • Forced                                   : No
  • Color range                              : Limited
  • Matrix coefficients                      : BT.709
  • Audio
  • ID                                       : 2
  • Format                                   : AC-3
  • Format/Info                              : Audio Coding 3
  • Commercial name                          : Dolby Digital
  • Codec ID                                 : A_AC3
  • Duration                                 : 15 min 30 s
  • Bit rate mode                            : Constant
  • Bit rate                                 : 192 kb/s
  • Channel(s)                               : 2 channels
  • Channel layout                           : L R
  • Sampling rate                            : 48.0 kHz
  • Frame rate                               : 31.250 FPS (1536 SPF)
  • Compression mode                         : Lossy
  • Stream size                              : 21.3 MiB (4%)
  • Language                                 : English
  • Service kind                             : Complete Main
  • Default                                  : Yes
  • Forced                                   : No
  • Menu
  • 00:00:00.000                             : en:00:00:00.000
  • 00:05:45.178                             : en:00:05:45.178
  • 00:08:48.528                             : en:00:08:48.528
  • 00:12:31.584                             : en:00:12:31.584

复制代码


日暮 Nightfall.2016.SUBBED.1080p.BluRay.x264-BiPOLAR 594.79MB

日暮 Nightfall.2016.SUBBED.1080p.BluRay.x264-BiPOLAR 594.79MB



蓝光高清网提示您  点击下方附件名称  马上开始下载

日暮 Nightfall.2016.SUBBED.1080p.BluRay.x264-BiPOLAR 594.79MB
Nightfall.2016.SUBBED.1080p.BluRay.x264-BiPOLAR.torrent 
         (12.26 KB    阅读权限: 0)
加入蓝光高清网VIP会员  无限制下载本站所有资源---点这里

资源下载、资源播放、字幕使用、无法下载等常见问题---点这里
回复

使用道具 举报

您需要登录后才可以回帖 登录 | 立即注册

本版积分规则

关注0

粉丝1

帖子89799

发布主题
最新电影 论坛
本期活动
联系我们
点击这里联系客服

服务时间:
周一到周日8:00-23:30

  • 打开微信扫一扫
    关注公众号

  • 手机QQ扫一扫
    添加客服

手机版蓝光高清网 |网站地图

Powered by Discuz! X3.4 Licensed  © 2001-2013 Comsenz Inc.