[其它] 佛历2562年的甲米/喀比幻梦,2562 Krabi.2562.2019.1080p.BluRay.x264-BiPOLAR 14.00GB

[复制链接]
蓝鸟 发表于 2020-10-15 12:33:17 | 显示全部楼层 |阅读模式 打印 上一主题 下一主题

佛历2562年的甲米/喀比幻梦,2562 Krabi.2562.2019.1080p.BluRay.x264-BiPOLAR 14.00GB

佛历2562年的甲米/喀比幻梦,2562 Krabi.2562.2019.1080p.BluRay.x264-BiPOLAR 14.00GB



译  名 佛历2562年的甲米 / In the Holocene / 喀比幻梦,2562(台) / 喀比的前世今生(港)
片  名 Krabi, 2562
年  代 2019
产  地 英国 / 泰国
类  别 纪录片
语  言 泰语 / 英语
上映日期 2019-08-08(洛迦诺电影节)
IMDb评分  6.4/10 from 138 users
IMDb链接  https://www.imdb.com/title/tt10696320
豆瓣评分 6.0/10 from 317 users
豆瓣链接 https://movie.douban.com/subject/34607977/
片  长 94分钟
导  演 本·里弗斯 Ben Rivers / 安诺查·苏薇查柯邦 Anocha Suwichakornpong
主  演 亚瑞克·阿莫苏帕西瑞 Arak Amornsupasiri
       Achtara Suwan
       斯拉潘·瓦塔纳金达 Siraphan Wattanajinda


标  签 泰国 | 纪录片 | 实验 | 2019 | 英国 | BenRivers | 苏薇查柯邦 | 2010s

简  介  

  喀比島,位於泰國南方的美麗度假灣,在海風輕撫、浪濤拍岸的怡人風景中,流轉著亙古流傳的靈異故事和民俗傳說;遺留千萬年的貝殼墓塚,洞穴幽暗深處的史前人類目光如炬,遙望著數偸兰o後遊人如織的海岸。女孩帶著不同的遊客觀光遊歷,述說著喀比島的一切,話語拓延了時間,景物開展了世代,喀比的過去、現在、未來,都在虛構與紀實的影像中疊合為一,佛曆2562的西元2019年,顯影了此時此刻的影像紀年。擅長以詩意影像探索嚴肅政治題材的泰國導演阿諾查蘇維查康彭,與實驗電影導演班里弗斯合作,透過超十六毫米膠卷,共同譜出這段悠遊於不同時空的影像詩篇,層理分明的虛實堆疊,優雅流轉的音畫合鳴,在光影晃動之間,屬於喀比的故事緩緩地流瀉。



该资源信息参数
  • Video
  • ID                                       : 1
  • Format                                   : AVC
  • Format/Info                              : Advanced Video Codec
  • Format profile                           : High@L4.1
  • Format settings                          : CABAC / 4 Ref Frames
  • Format settings, CABAC                   : Yes
  • Format settings, Reference frames        : 4 frames
  • Codec ID                                 : V_MPEG4/ISO/AVC
  • Duration                                 : 1 h 29 min
  • Bit rate                                 : 18.5 Mb/s
  • Width                                    : 1 800 pixels
  • Height                                   : 1 080 pixels
  • Display aspect ratio                     : 5:3
  • Frame rate mode                          : Constant
  • Frame rate                               : 23.976 (24000/1001/45378) FPS
  • Color space                              : YUV
  • Chroma subsampling                       : 4:2:0
  • Bit depth                                : 8 bits
  • Scan type                                : Progressive
  • Bits/(Pixel*Frame)                       : 0.397
  • Stream size                              : 11.6 GiB (83%)
  • Writing library                          : x264 core 161 r3018 db0d417
  • Encoding settings                        : cabac=1 / ref=4 / deblock=1:-3:-3 / analyse=0x3:0x133 / me=umh / subme=10 / psy=1 / psy_rd=1.00:0.15 / mixed_ref=1 / me_range=24 / chroma_me=1 / trellis=2 / 8x8dct=1 / cqm=0 / deadzone=21,11 / fast_pskip=1 / chroma_qp_offset=-3 / threads=18 / lookahead_threads=3 / sliced_threads=0 / nr=0 / decimate=1 / interlaced=0 / bluray_compat=0 / constrained_intra=0 / bframes=8 / b_pyramid=2 / b_adapt=2 / b_bias=0 / direct=3 / weightb=1 / open_gop=0 / weightp=2 / keyint=250 / keyint_min=23 / scenecut=40 / intra_refresh=0 / rc_lookahead=60 / rc=crf / mbtree=1 / crf=16.0 / qcomp=0.60 / qpmin=0 / qpmax=69 / qpstep=4 / ip_ratio=1.40 / aq=3:0.50
  • Language                                 : English
  • Default                                  : Yes
  • Forced                                   : No
  • Color range                              : Limited
  • Matrix coefficients                      : BT.709
  • Audio #1
  • ID                                       : 2
  • Format                                   : DTS XLL
  • Format/Info                              : Digital Theater Systems
  • Commercial name                          : DTS-HD Master Audio
  • Codec ID                                 : A_DTS
  • Duration                                 : 1 h 29 min
  • Bit rate mode                            : Variable
  • Bit rate                                 : 3 639 kb/s
  • Channel(s)                               : 6 channels
  • Channel layout                           : C L R Ls Rs LFE
  • Sampling rate                            : 48.0 kHz
  • Frame rate                               : 93.750 FPS (512 SPF)
  • Bit depth                                : 24 bits
  • Compression mode                         : Lossless
  • Stream size                              : 2.29 GiB (16%)
  • Language                                 : Thai
  • Default                                  : Yes
  • Forced                                   : No
  • Audio #2
  • ID                                       : 3
  • Format                                   : AAC LC
  • Format/Info                              : Advanced Audio Codec Low Complexity
  • Codec ID                                 : A_AAC-2
  • Duration                                 : 1 h 29 min
  • Bit rate                                 : 106 kb/s
  • Channel(s)                               : 2 channels
  • Channel layout                           : L R
  • Sampling rate                            : 48.0 kHz
  • Frame rate                               : 46.875 FPS (1024 SPF)
  • Compression mode                         : Lossy
  • Delay relative to video                  : 9 ms
  • Stream size                              : 68.1 MiB (0%)
  • Title                                    : English Commentary by Ben Rivers and Anocha Suwichakornpong
  • Language                                 : English
  • Default                                  : No
  • Forced                                   : No
  • Text #1
  • ID                                       : 4
  • Format                                   : UTF-8
  • Codec ID                                 : S_TEXT/UTF8
  • Codec ID/Info                            : UTF-8 Plain Text
  • Duration                                 : 1 h 29 min
  • Bit rate                                 : 20 b/s
  • Count of elements                        : 407
  • Stream size                              : 13.3 KiB (0%)
  • Title                                    : English forced
  • Language                                 : English
  • Default                                  : Yes
  • Forced                                   : Yes
  • Text #2
  • ID                                       : 5
  • Format                                   : PGS
  • Muxing mode                              : zlib
  • Codec ID                                 : S_HDMV/PGS
  • Codec ID/Info                            : Picture based subtitle format used on BDs/HD-DVDs
  • Duration                                 : 1 h 29 min
  • Bit rate                                 : 4 756 b/s
  • Count of elements                        : 678
  • Stream size                              : 3.05 MiB (0%)
  • Title                                    : English forced
  • Language                                 : English
  • Default                                  : No
  • Forced                                   : No
  • Text #3
  • ID                                       : 6
  • Format                                   : UTF-8
  • Codec ID                                 : S_TEXT/UTF8
  • Codec ID/Info                            : UTF-8 Plain Text
  • Duration                                 : 1 h 29 min
  • Bit rate                                 : 27 b/s
  • Count of elements                        : 524
  • Stream size                              : 17.7 KiB (0%)
  • Title                                    : English
  • Language                                 : English
  • Default                                  : No
  • Forced                                   : No
  • Text #4
  • ID                                       : 7
  • Format                                   : UTF-8
  • Codec ID                                 : S_TEXT/UTF8
  • Codec ID/Info                            : UTF-8 Plain Text
  • Duration                                 : 1 h 29 min
  • Bit rate                                 : 29 b/s
  • Count of elements                        : 565
  • Stream size                              : 19.2 KiB (0%)
  • Title                                    : English SDH
  • Language                                 : English
  • Default                                  : No
  • Forced                                   : No
  • Text #5
  • ID                                       : 8
  • Format                                   : PGS
  • Muxing mode                              : zlib
  • Codec ID                                 : S_HDMV/PGS
  • Codec ID/Info                            : Picture based subtitle format used on BDs/HD-DVDs
  • Duration                                 : 1 h 29 min
  • Bit rate                                 : 7 018 b/s
  • Count of elements                        : 971
  • Stream size                              : 4.49 MiB (0%)
  • Title                                    : English SDH
  • Language                                 : English
  • Default                                  : No
  • Forced                                   : No
  • Menu
  • 00:00:00.000                             : en:00:00:00.000
  • 00:10:29.087                             : en:00:10:29.087
  • 00:18:36.866                             : en:00:18:36.866
  • 00:23:28.699                             : en:00:23:28.699
  • 00:29:47.452                             : en:00:29:47.452
  • 00:38:00.570                             : en:00:38:00.570
  • 00:44:03.140                             : en:00:44:03.140
  • 00:47:38.856                             : en:00:47:38.856
  • 00:53:39.883                             : en:00:53:39.883
  • 01:04:48.134                             : en:01:04:48.134
  • 01:11:46.636                             : en:01:11:46.636
  • 01:17:38.070                             : en:01:17:38.070

复制代码


佛历2562年的甲米/喀比幻梦,2562 Krabi.2562.2019.1080p.BluRay.x264-BiPOLAR 14.00GB

佛历2562年的甲米/喀比幻梦,2562 Krabi.2562.2019.1080p.BluRay.x264-BiPOLAR 14.00GB



蓝光高清网提示您  点击下方附件名称  马上开始下载

佛历2562年的甲米/喀比幻梦,2562 Krabi.2562.2019.1080p.BluRay.x264-BiPOLAR 14.00GB
Krabi.2562.2019.1080p.BluRay.x264-BiPOLAR.torrent 
         (70.71 KB    阅读权限: 0)
加入蓝光高清网VIP会员  无限制下载本站所有资源---点这里

资源下载、资源播放、字幕使用、无法下载等常见问题---点这里
回复

使用道具 举报

您需要登录后才可以回帖 登录 | 立即注册

本版积分规则

关注0

粉丝1

帖子89799

发布主题
最新电影 论坛
本期活动
联系我们
点击这里联系客服

服务时间:
周一到周日8:00-23:30

  • 打开微信扫一扫
    关注公众号

  • 手机QQ扫一扫
    添加客服

手机版蓝光高清网 |网站地图

Powered by Discuz! X3.4 Licensed  © 2001-2013 Comsenz Inc.