[其它] 血腥市政厅 Town.Bloody.Hall.1979.1080p.BluRay.x264-BiPOLAR 12.75GB

[复制链接]
蓝鸟 发表于 2020-10-15 12:34:29 | 显示全部楼层 |阅读模式 打印 上一主题 下一主题

血腥市政厅 Town.Bloody.Hall.1979.1080p.BluRay.x264-BiPOLAR 12.75GB

血腥市政厅 Town.Bloody.Hall.1979.1080p.BluRay.x264-BiPOLAR 12.75GB



译  名 血腥市政厅
片  名 Town Bloody Hall
年  代 1979
产  地 美国
类  别 纪录片
语  言 英语
上映日期 1979-04-03(美国)
IMDb评分  7.4/10 from 143 users
IMDb链接  https://www.imdb.com/title/tt0217853
豆瓣评分 0/10 from 0 users
豆瓣链接 https://movie.douban.com/subject/4250456/
片  长 85 分钟
导  演 彭尼贝克 D.A. Pennebaker / 克莉斯·埃热迪 Chris Hegedus
编  剧 Germaine Greer / 诺曼·梅勒 Norman Mailer / Diana Trilling
主  演 诺曼·梅勒 Norman Mailer
       Germaine Greer
       Diana Trilling
       苏珊·桑塔格 Susan Sontag
       Betty Friedan
       伊丽莎白·哈德威克 Elizabeth Hardwick


标  签 纪录片 | CC | 美国 | 没有下的CC | 好东西 | 女性 | 下午電影 | Tisch

简  介  

  The infamously macho American author shares a 1971 New York City panel with a group of famous feminists and responds as well to a lively critique from other intellectual women in the audience, in this time capsule of what a sophisticated political and literary public discussion was like in the early days of Women"s Liberation.

  谷歌为您翻译:
  这位臭名昭著的美国男子气概的作家与一群著名的女权主义者分享了1971年在纽约市的一个小组,并回应了听众中其他知识分子女性的生动批评,在这段时间里,这是对复杂的政治和文学公共讨论的描述。妇女解放的初期。

  腾讯为您翻译:
  这位臭名昭著的男子汉气概的美国作家与一群著名的女权主义者分享了1971年纽约市的一个小组讨论,并对观众中其他知识女性的活跃批评做出了回应,在这个时间胶囊中,妇女解放初期复杂的政治和文学公开讨论是什么样子的。

  本站为您翻译:
  这位臭名昭著的大男子主义美国作家与一群著名的女权主义者分享了1971年纽约市的一个座谈小组,也对观众中其他知识分子女性的生动批评做出了回应,在这个时间胶囊中,我们可以看到在妇女解放运动早期,一场复杂的政治和文学公开讨论是什么样子的。




该资源信息参数
  • Video
  • ID                                       : 1
  • Format                                   : AVC
  • Format/Info                              : Advanced Video Codec
  • Format profile                           : High@L4.1
  • Format settings                          : CABAC / 5 Ref Frames
  • Format settings, CABAC                   : Yes
  • Format settings, Reference frames        : 5 frames
  • Codec ID                                 : V_MPEG4/ISO/AVC
  • Duration                                 : 1 h 25 min
  • Bit rate                                 : 20.6 Mb/s
  • Width                                    : 1 440 pixels
  • Height                                   : 1 080 pixels
  • Display aspect ratio                     : 4:3
  • Frame rate mode                          : Constant
  • Frame rate                               : 23.976 (24000/1001/45378) FPS
  • Color space                              : YUV
  • Chroma subsampling                       : 4:2:0
  • Bit depth                                : 8 bits
  • Scan type                                : Progressive
  • Bits/(Pixel*Frame)                       : 0.551
  • Stream size                              : 12.3 GiB (97%)
  • Writing library                          : x264 core 161 r3018 db0d417
  • Encoding settings                        : cabac=1 / ref=5 / deblock=1:-3:-3 / analyse=0x3:0x133 / me=umh / subme=10 / psy=1 / psy_rd=1.00:0.15 / mixed_ref=1 / me_range=24 / chroma_me=1 / trellis=2 / 8x8dct=1 / cqm=0 / deadzone=21,11 / fast_pskip=1 / chroma_qp_offset=-3 / threads=18 / lookahead_threads=3 / sliced_threads=0 / nr=0 / decimate=1 / interlaced=0 / bluray_compat=0 / constrained_intra=0 / bframes=8 / b_pyramid=2 / b_adapt=2 / b_bias=0 / direct=3 / weightb=1 / open_gop=0 / weightp=2 / keyint=250 / keyint_min=23 / scenecut=40 / intra_refresh=0 / rc_lookahead=60 / rc=crf / mbtree=1 / crf=17.5 / qcomp=0.60 / qpmin=0 / qpmax=69 / qpstep=4 / ip_ratio=1.40 / aq=3:0.50
  • Language                                 : English
  • Default                                  : Yes
  • Forced                                   : No
  • Audio #1
  • ID                                       : 2
  • Format                                   : FLAC
  • Format/Info                              : Free Lossless Audio Codec
  • Codec ID                                 : A_FLAC
  • Duration                                 : 1 h 25 min
  • Bit rate mode                            : Variable
  • Bit rate                                 : 662 kb/s
  • Channel(s)                               : 1 channel
  • Channel layout                           : C
  • Sampling rate                            : 48.0 kHz
  • Frame rate                               : 11.719 FPS (4096 SPF)
  • Bit depth                                : 24 bits
  • Compression mode                         : Lossless
  • Stream size                              : 406 MiB (3%)
  • Title                                    : English
  • Writing library                          : libFLAC 1.2.1 (UTC 2007-09-17)
  • Language                                 : English
  • Default                                  : Yes
  • Forced                                   : No
  • Audio #2
  • ID                                       : 3
  • Format                                   : AAC LC
  • Format/Info                              : Advanced Audio Codec Low Complexity
  • Codec ID                                 : A_AAC-2
  • Duration                                 : 1 h 25 min
  • Bit rate                                 : 62.7 kb/s
  • Channel(s)                               : 1 channel
  • Channel layout                           : C
  • Sampling rate                            : 48.0 kHz
  • Frame rate                               : 46.875 FPS (1024 SPF)
  • Compression mode                         : Lossy
  • Delay relative to video                  : 9 ms
  • Stream size                              : 38.4 MiB (0%)
  • Title                                    : English Commentary by Chris Hegedus and Germaine Greer
  • Language                                 : English
  • Default                                  : No
  • Forced                                   : No
  • Text #1
  • ID                                       : 4
  • Format                                   : UTF-8
  • Codec ID                                 : S_TEXT/UTF8
  • Codec ID/Info                            : UTF-8 Plain Text
  • Duration                                 : 1 h 23 min
  • Bit rate                                 : 108 b/s
  • Count of elements                        : 1390
  • Stream size                              : 66.4 KiB (0%)
  • Title                                    : English
  • Language                                 : English
  • Default                                  : No
  • Forced                                   : No
  • Text #2
  • ID                                       : 5
  • Format                                   : UTF-8
  • Codec ID                                 : S_TEXT/UTF8
  • Codec ID/Info                            : UTF-8 Plain Text
  • Duration                                 : 1 h 24 min
  • Bit rate                                 : 114 b/s
  • Count of elements                        : 1512
  • Stream size                              : 71.3 KiB (0%)
  • Title                                    : English SDH
  • Language                                 : English
  • Default                                  : No
  • Forced                                   : No
  • Text #3
  • ID                                       : 6
  • Format                                   : PGS
  • Muxing mode                              : zlib
  • Codec ID                                 : S_HDMV/PGS
  • Codec ID/Info                            : Picture based subtitle format used on BDs/HD-DVDs
  • Duration                                 : 1 h 24 min
  • Bit rate                                 : 15.1 kb/s
  • Count of elements                        : 3026
  • Stream size                              : 9.16 MiB (0%)
  • Title                                    : English SDH
  • Language                                 : English
  • Default                                  : No
  • Forced                                   : No
  • Menu
  • 00:00:00.000                             : en:00:00:00.000
  • 00:01:50.235                             : en:00:01:50.235
  • 00:04:52.792                             : en:00:04:52.792
  • 00:13:04.283                             : en:00:13:04.283
  • 00:22:40.359                             : en:00:22:40.359
  • 00:34:41.496                             : en:00:34:41.496
  • 00:43:23.851                             : en:00:43:23.851
  • 00:48:42.795                             : en:00:48:42.795
  • 00:51:27.126                             : en:00:51:27.126
  • 00:55:31.870                             : en:00:55:31.870
  • 01:02:07.057                             : en:01:02:07.057
  • 01:10:25.263                             : en:01:10:25.263
  • 01:22:12.052                             : en:01:22:12.052

复制代码


血腥市政厅 Town.Bloody.Hall.1979.1080p.BluRay.x264-BiPOLAR 12.75GB

血腥市政厅 Town.Bloody.Hall.1979.1080p.BluRay.x264-BiPOLAR 12.75GB



蓝光高清网提示您  点击下方附件名称  马上开始下载

血腥市政厅 Town.Bloody.Hall.1979.1080p.BluRay.x264-BiPOLAR 12.75GB
Town.Bloody.Hall.1979.1080p.BluRay.x264-BiPOLAR.torrent 
         (64.39 KB    阅读权限: 0)
加入蓝光高清网VIP会员  无限制下载本站所有资源---点这里

资源下载、资源播放、字幕使用、无法下载等常见问题---点这里
回复

使用道具 举报

您需要登录后才可以回帖 登录 | 立即注册

本版积分规则

关注0

粉丝1

帖子89799

发布主题
最新电影 论坛
本期活动
联系我们
点击这里联系客服

服务时间:
周一到周日8:00-23:30

  • 打开微信扫一扫
    关注公众号

  • 手机QQ扫一扫
    添加客服

手机版蓝光高清网 |网站地图

Powered by Discuz! X3.4 Licensed  © 2001-2013 Comsenz Inc.