[其它] 面对面 Face.To.Face.1967.ITALIAN.EXTENDED.1080p.BluRay.x264-HANDJOB 9.21GB

[复制链接]
蓝鸟 发表于 2020-10-15 12:35:45 | 显示全部楼层 |阅读模式 打印 上一主题 下一主题

面对面 Face.To.Face.1967.ITALIAN.EXTENDED.1080p.BluRay.x264-HANDJOB 9.21GB

面对面 Face.To.Face.1967.ITALIAN.EXTENDED.1080p.BluRay.x264-HANDJOB 9.21GB



译  名 面对面 / Cara a cara / Face to Face
片  名 Faccia a faccia
年  代 1967
产  地 西班牙 / 意大利
类  别 西部 / 冒险
语  言 意大利语 / 西班牙语
上映日期 1967-11-23
IMDb评分  7.2/10 from 2581 users
IMDb链接  https://www.imdb.com/title/tt0061636
豆瓣评分 6.6/10 from 131 users
豆瓣链接 https://movie.douban.com/subject/2354768/
片  长 108 分钟
导  演 赛尔乔·索利马 Sergio Sollima
编  剧 赛尔乔·索利马 Sergio Sollima
主  演 安赫尔·德尔波佐 ángel del Pozo
       Jolanda Modio
       妮可莱塔·玛西亚弗利 Nicoletta Machiavelli
       托马斯·米连 Tomas Milian
       Goffredo Unger
       弗兰克·布拉尼亚 Frank Bra?a
       安东尼奥·卡萨斯 Antonio Casas
       内洛·帕扎菲尼 Nello Pazzafini
       Calisto Calisti
       费代里科·博伊多 Federico Boido
       利迪娅·阿方西 Lidia Alfonsi
       凯荷·安德烈 Carole André
       阿尔多·桑布雷利 Aldo Sambrell
       威廉姆·伯格 William Berger
       吉安·马里亚·沃隆特 Gian Maria Volonté


标  签 意大利 | 西部 | 西部片 | Sergio_Sollima | 1967 | 意大利电影 | 1960s | 西班牙

简  介  

  意大利题材电影大师瑟吉奥.索利马的又一杰作《面对面》。这是一个关于消灭流氓团伙的西部冒险故事,预示着法西斯主义的兴起。布拉德.弗莱彻教授由于健康原因不得不退休,决定半岛西部温暖地区居住。可是刚到西部,出于偶然教授就被臭名昭著的强盗本内特劫持成为人质。教授不得不和一群强盗待在一起。可是教授对强盗神父的逐渐认同促使他取代了本内特成为首领,并在队伍中实行更为严格的领导制度。该片由瑟吉奥.里昂的长期合作伙伴艾伯图.格里麦尔迪出品,配乐由大师埃尼奥.莫里康内完成。



该资源信息参数
  • Video
  • ID                                       : 1
  • Format                                   : AVC
  • Format/Info                              : Advanced Video Codec
  • Format profile                           : High@L4.1
  • Format settings                          : CABAC / 5 Ref Frames
  • Format settings, CABAC                   : Yes
  • Format settings, Reference frames        : 5 frames
  • Codec ID                                 : V_MPEG4/ISO/AVC
  • Duration                                 : 1 h 50 min
  • Bit rate                                 : 11.5 Mb/s
  • Width                                    : 1 916 pixels
  • Height                                   : 814 pixels
  • Display aspect ratio                     : 2.35:1
  • Frame rate mode                          : Constant
  • Frame rate                               : 24.000 FPS
  • Color space                              : YUV
  • Chroma subsampling                       : 4:2:0
  • Bit depth                                : 8 bits
  • Scan type                                : Progressive
  • Bits/(Pixel*Frame)                       : 0.308
  • Stream size                              : 8.88 GiB (96%)
  • Writing library                          : x264 core 157 r2935 545de2f
  • Encoding settings                        : cabac=1 / ref=5 / deblock=1:-3:-3 / analyse=0x3:0x133 / me=umh / subme=10 / psy=1 / psy_rd=1.00:0.00 / mixed_ref=1 / me_range=32 / chroma_me=1 / trellis=2 / 8x8dct=1 / cqm=0 / deadzone=21,11 / fast_pskip=0 / chroma_qp_offset=-2 / threads=12 / lookahead_threads=3 / sliced_threads=0 / nr=0 / decimate=0 / interlaced=0 / bluray_compat=0 / constrained_intra=0 / bframes=16 / b_pyramid=2 / b_adapt=2 / b_bias=0 / direct=3 / weightb=1 / open_gop=0 / weightp=2 / keyint=240 / keyint_min=24 / scenecut=40 / intra_refresh=0 / rc_lookahead=60 / rc=crf / mbtree=0 / crf=18.5 / qcomp=0.60 / qpmin=0 / qpmax=69 / qpstep=4 / vbv_maxrate=62500 / vbv_bufsize=78125 / crf_max=0.0 / nal_hrd=none / filler=0 / ip_ratio=1.40 / pb_ratio=1.30 / aq=2:1.00
  • Default                                  : Yes
  • Forced                                   : No
  • Color range                              : Limited
  • Color primaries                          : BT.709
  • Transfer characteristics                 : BT.709
  • Matrix coefficients                      : BT.709
  • Audio
  • ID                                       : 2
  • Format                                   : FLAC
  • Format/Info                              : Free Lossless Audio Codec
  • Codec ID                                 : A_FLAC
  • Duration                                 : 1 h 50 min
  • Bit rate mode                            : Variable
  • Bit rate                                 : 416 kb/s
  • Channel(s)                               : 2 channels
  • Channel layout                           : L R
  • Sampling rate                            : 48.0 kHz
  • Frame rate                               : 11.719 FPS (4096 SPF)
  • Bit depth                                : 16 bits
  • Compression mode                         : Lossless
  • Stream size                              : 328 MiB (3%)
  • Writing library                          : libFLAC 1.3.1 (UTC 2014-11-25)
  • Language                                 : Italian
  • Default                                  : Yes
  • Forced                                   : No
  • Text #1
  • ID                                       : 3
  • Format                                   : UTF-8
  • Codec ID                                 : S_TEXT/UTF8
  • Codec ID/Info                            : UTF-8 Plain Text
  • Duration                                 : 1 h 49 min
  • Bit rate                                 : 42 b/s
  • Count of elements                        : 877
  • Stream size                              : 34.3 KiB (0%)
  • Language                                 : English
  • Default                                  : Yes
  • Forced                                   : No
  • Text #2
  • ID                                       : 4
  • Format                                   : PGS
  • Muxing mode                              : zlib
  • Codec ID                                 : S_HDMV/PGS
  • Codec ID/Info                            : Picture based subtitle format used on BDs/HD-DVDs
  • Duration                                 : 1 h 49 min
  • Bit rate                                 : 23.5 kb/s
  • Count of elements                        : 2348
  • Stream size                              : 18.4 MiB (0%)
  • Language                                 : French
  • Default                                  : No
  • Forced                                   : No
  • Menu
  • 00:00:08.000                             : :"My Role in History..."
  • 00:04:02.400                             : :Opening Credits
  • 00:07:10.900                             : :First Encounters
  • 00:13:21.000                             : :On the Lamb
  • 00:15:38.700                             : :"Come On! Deeper!"
  • 00:19:51.900                             : :The Stranger
  • 00:27:59.100                             : urgatory City
  • 00:32:27.600                             : :High Noon
  • 00:37:19.000                             : :Gettin\" the Gang Back Together
  • 00:41:48.300                             : :The Plantation
  • 00:46:45.700                             : :Return of Siringo
  • 00:48:46.000                             : :Blazing Rock
  • 00:56:14.950                             : :Council of War
  • 00:59:41.800                             : :"What Legends are Made Of"
  • 01:04:19.500                             : :Setting a Trap
  • 01:09:59.700                             : :The Bank Job
  • 01:18:06.700                             : :Brought Down
  • 01:23:07.400                             : :500 Vigilantes
  • 01:25:28.500                             : :"The Violence of the Masses, Which Makes History"
  • 01:28:26.300                             : :"A Huge Debt to Pay..."
  • 01:30:54.400                             : :Some Honest and Law-Abiding Citizens
  • 01:33:47.600                             : :Blazing Rock Blazing
  • 01:37:17.900                             : :Exodus
  • 01:41:40.800                             : :The Final Stand
  • 01:44:42.400                             : :Black, White, & Grey

复制代码


面对面 Face.To.Face.1967.ITALIAN.EXTENDED.1080p.BluRay.x264-HANDJOB 9.21GB

面对面 Face.To.Face.1967.ITALIAN.EXTENDED.1080p.BluRay.x264-HANDJOB 9.21GB



面对面 Face.To.Face.1967.ITALIAN.EXTENDED.1080p.BluRay.x264-HANDJOB 9.21GB

面对面 Face.To.Face.1967.ITALIAN.EXTENDED.1080p.BluRay.x264-HANDJOB 9.21GB



面对面 Face.To.Face.1967.ITALIAN.EXTENDED.1080p.BluRay.x264-HANDJOB 9.21GB

面对面 Face.To.Face.1967.ITALIAN.EXTENDED.1080p.BluRay.x264-HANDJOB 9.21GB



蓝光高清网提示您  点击下方附件名称  马上开始下载

面对面 Face.To.Face.1967.ITALIAN.EXTENDED.1080p.BluRay.x264-HANDJOB 9.21GB
Face.To.Face.1967.ITALIAN.EXTENDED.1080p.BluRay.x264-HANDJOB.torrent 
         (46.61 KB    阅读权限: 0)
加入蓝光高清网VIP会员  无限制下载本站所有资源---点这里

资源下载、资源播放、字幕使用、无法下载等常见问题---点这里
回复

使用道具 举报

您需要登录后才可以回帖 登录 | 立即注册

本版积分规则

关注0

粉丝1

帖子89799

发布主题
最新电影 论坛
本期活动
联系我们
点击这里联系客服

服务时间:
周一到周日8:00-23:30

  • 打开微信扫一扫
    关注公众号

  • 手机QQ扫一扫
    添加客服

手机版蓝光高清网 |网站地图

Powered by Discuz! X3.4 Licensed  © 2001-2013 Comsenz Inc.