开通会员
全站资源畅享下载
4k原盘抢先下载
免高清币下载
会员用户组特权
开通会员
上传
收藏
首页
开启左侧

爱与怪物 4K.Love.and.Monsters.2020.HDR.2160p.WEB.H265-4k电影下载—11.73 GB

[复制链接]
蓝鸟 发表于 2020-10-18 22:09:44 | 显示全部楼层 |阅读模式 打印 上一主题 下一主题

爱与怪物(2020年上映)

主演迪伦·奥布莱恩 / 梅拉妮·萨内蒂 / 迈克尔·鲁克 / 杰西卡·亨维克 / 艾伦·霍尔曼
导演迈克尔·马修斯
类型冒险 
地区美国 
片长108分钟
画质4K HDR 原盘
音轨Dolby TrueHD 5.1 
评分豆瓣7.4分
电影【爱与怪物】原盘信息
 

加入蓝光高清网,轻松下载最新4k资源

您需要 登录 才可以下载或查看,没有帐号?立即注册

x
简       介4 _. J& B9 g8 g

" g9 s2 e* P' R3 w& E) w0 G: r( n  影片据称风格结合《僵尸之地》和约翰·修斯的青少年电影,讲述一场“怪物末日”迫使所有人类转到地下殖民地居住,此事件7年后,男主Joel Dawson(奥布莱恩)目睹身边的幸存者们都成双成对了,他也想和自己的梦中女孩Aimee(亨维克)在一起。为此,Dawson勇敢地去到地表,并和一只英勇的狗狗及两个人(鲁克和Greenblatt)成了队友,在他们的帮助下,Dawson要努力穿越怪兽横行的后末世,寻找真爱。
7 P+ ?8 C0 t$ |' C6 I) m
" p# u5 [4 a1 Z  q

$ R4 y& m5 f+ n% |% ?( ^影片参数
$ w) `5 d  K$ w( a
怪物问题 / Monster Problems/爱与怪物4K.Love.and.Monsters.2020.HDR.2160p.WEB.H265-4k电影信息
) T# v2 D  o' V7 s* s! Z6 xVideo  y; G, t$ a# g
ID : 1
6 ~2 t1 L6 o/ W/ a6 k8 v! q  g) A3 HFormat : HEVC- O1 O1 |9 ^9 g8 ^
Format/Info : High Efficiency Video Coding
# t" T& Y: N3 m# Q/ F( E7 }: ^, QFormat profile : Main 10@L5@Main6 P% c" M- N$ Z+ Y4 G
Codec ID : V_MPEGH/ISO/HEVC+ B" g- h) m# B! @: ?: G: m
Duration : 1 h 48 min* Q+ {! f6 f% r! [0 d9 Q# b
Bit rate : 14.7 Mb/s2 `* O- u$ v& ]( r1 o6 P3 D
Width : 3 840 pixels! {& c' _/ u% R" M& W
Height : 2 160 pixels+ I, w% ]) j6 L3 y' J# o& j
Display aspect ratio : 16:9
9 Z6 W' }. F6 R4 K3 g* y, |6 dFrame rate mode : Constant5 o* D$ O6 T5 U1 u  Y
Frame rate : 23.976 (24000/1001) FPS' }. y& j: y3 {: y' O; w$ ~1 c; [: Z
Color space : YUV  Q! [0 S9 `9 N* l/ I
Chroma subsampling : 4:2:0 (Type 2)- J) ?- x( o1 X6 q( n
Bit depth : 10 bits# E$ {: \1 V+ B# f8 v
Bits/(Pixel*Frame) : 0.074. s: [; v! M8 e+ q9 W; X
Stream size : 11.2 GiB (96%)* a% m) P, X. }0 S* b
Default : Yes
! B: N. [9 s: H* @9 I3 ~3 IForced : No
. V( G) W6 w$ Z9 lColor range : Limited
5 t9 w. a; X) o1 B+ p; c1 tColor primaries : BT.2020
1 H( o( h8 k; U! _Transfer characteristics : PQ& c! S( X4 M! @0 i2 v8 X9 w: Y
Matrix coefficients : BT.2020 non-constant  m1 ?: S) m" p% K9 e2 L
Maximum Content Light Level : 1000 cd/m2
/ j  U1 a, @8 E# @3 v* t& dMaximum Frame-Average Light Level : 387 cd/m25 U" R2 x( Z) e/ a6 i% \4 |
# r& T6 [1 Y) J9 t) D$ B

1 ]' \, c. z/ {8 G* ?6 F0 K# `Audio0 r( Z. [& }8 j  O
ID : 2( n; X$ G! M$ x% ]: i# U, N: R
Format : E-AC-37 k* Q0 l4 K9 @; r
Format/Info : Enhanced AC-32 e5 c; s9 A6 n/ J2 r" t! F) M- q3 |; S
Commercial name : Dolby Digital Plus$ T* M1 U: j9 ]
Codec ID : A_EAC3
7 p6 `- ^& K6 Y; L3 o4 o7 S' ZDuration : 1 h 48 min
# o( h+ K* b* R! g' h- n; zBit rate mode : Constant
! l9 V  C! u0 r0 a+ g# XBit rate : 256 kb/s/ ^3 s) Y! p6 k7 ^9 J
Channel(s) : 6 channels
* s0 B! p( S7 T: X6 G  P. OChannel layout : L R C LFE Ls Rs& R3 R5 n* q' _8 Y- j& ^/ M( t% O
Sampling rate : 48.0 kHz
5 k  X- J: ]) x# b* }Frame rate : 31.250 FPS (1536 SPF)
4 E7 V, a1 m. u' @/ X( g4 `Compression mode : Lossy
' r2 t# @( X0 }, q  @Stream size : 199 MiB (2%)
% v0 Q9 r% r. U" F5 l. aLanguage : English; z4 k0 s4 M' X9 W1 p2 q
Service kind : Complete Main
* @8 E! x- [8 D1 ^. {Default : Yes
: l8 G" l8 H) N+ `) f. x4 jForced : No
3 Y; h- P& V1 f' i" }) s1 Q
1 J0 l' v. L3 f( [! [" P/ F, }' N6 B: m
1 @$ [, }) W* [* r! \; q
Text
- Y: P' E/ p7 C9 @7 B9 b  OID : 3- c3 k9 @$ @; d- t
Format : UTF-8
& T# ~9 Z, y2 U: r* z6 {$ m4 F- d% sCodec ID : S_TEXT/UTF8
1 H8 c3 T2 o" J. {1 N! kCodec ID/Info : UTF-8 Plain Text3 a' v+ O& T8 Z, y. P* P
Language : English1 L" l  T/ |2 y# l
Default : No
8 ~8 [5 d3 C2 y3 G7 IForced : No
$ Y$ l2 e! i: I6 d# y/ C! z# `5 G3 I
5 n3 Z$ m  b$ Q5 m* Q6 l
5 P+ B' j7 B, O6 r
蓝光高清网提示您  点击下方附件名称  马上开始下载3 m, }; J% y6 v7 d0 x% e- A9 S! p

# G% U2 T# s; p: F

# w' W& n2 c8 y  ]0 N- Q( R多版本下载时请注意区分$ s$ v& I. E+ W: W4 O  Y0 X$ K/ z

0 Q7 o( u' q: H5 r: j2 L怪物问题 / Monster Problems/爱与怪物4K.Love.and.Monsters.2020.HDR.2160p.WEB.H265-4k电影下载
: X0 Y( i3 M1 y5 q" L( `: a$ l- c& G9 L

3 |3 R5 B, Z1 ^' i" y
爱与怪物4K.Love.and.Monsters.2020.HDR.2160p.WEB.H265 【4K HDR 11.73 GB】3 @" E) Z) C2 @/ C- N9 T
爱与怪物4K.Love.and.Monsters.2020.HDR.2160p.WEB.H265-NAISU.torrent (59.32 KB, 下载次数: 15)

8 F' D" L  z1 \' Z  [

, }2 w! k/ G' k% ]; c7 ?9 \8 m* v% k8 Q6 G1 K- ?
爱与怪物中文字幕下载3 |/ z- T5 M7 W+ p
Love.and.Monsters.2020.720p_1080p.AMZN.WEBRip.DDP5.1.x264-NTG.rar (93.25 KB, 下载次数: 18)
% h  O& R$ y. u6 v( z, t7 @5 R

$ O' h! p$ y9 s* v  S, R+ ?

; O  h, `# y( J; ^7 v# w2 B
加入蓝光高清网VIP会员  无限制下载本站所有资源---点这里

资源下载、资源播放、字幕使用、无法下载等常见问题---点这里
回复

使用道具 举报

 

精彩评论5

正序浏览
wrangler7 发表于 2020-10-19 08:03:21 | 显示全部楼层
 

3 y' U% b0 S( @  _% V0 w6 V* ~非常感谢蓝光高清网给大家的享乐4k,祝蓝光高清网越办越好!
回复

使用道具 举报

 
gdlmxia 发表于 2020-10-19 12:15:57 | 显示全部楼层
 
太好啦&萬分感謝版主的無私發佈分享%
回复

使用道具 举报

 
wrangler7 发表于 2020-10-22 08:23:22 | 显示全部楼层
 
3 ]1 ^( l! j* X, N9 I: n3 P
祝蓝光高清网越办越红火。
回复

使用道具 举报

 
wrangler7 发表于 2020-10-23 08:15:52 | 显示全部楼层
 
非常感谢蓝光高清网分享的各种知识和资源,祝蓝光高清网越来越好
回复

使用道具 举报

 
kingjlc 发表于 2020-10-28 13:49:45 | 显示全部楼层
 
5 h; A9 B/ A7 P5 v3 a" ?4 Y8 }2 x
天天访问蓝光高清网  天天打卡  习惯了
回复

使用道具 举报

 
您需要登录后才可以回帖 登录 | 立即注册

本版积分规则

0关注

1粉丝

91145帖子

  • 版块推荐
  • 百宝箱

电影推荐

更多+

热门电影

更多+

关注我们:微信服务号

官方微信

手机版

蓝光高清网

专注4k电影、4k视频、VR视频、高清电影、蓝光原盘资源

本站内容部分由用户自主分享和转载自互联网,转载目的在于传递更多信息,并不代表本网赞同其观点和对其真实性负责。

如有侵权、违反国家法律政策行为,请联系我们,我们会第一时间及时清除和处理!

举报反馈邮箱:lanniao@1080pro.net

Copyright   ©2019-2020  蓝光高清网    |网站地图