开通会员
全站资源畅享下载
4k原盘抢先下载
免高清币下载
会员用户组特权
开通会员
上传
收藏
首页
开启左侧

战争机器4k War.Machine.2017.2160p.NF.WEB-DL.x265.10bit.HDR.DD5.1-4k电影下载—13.28 GB

[复制链接]
蓝鸟 发表于 2020-10-20 08:37:19 | 显示全部楼层 |阅读模式 打印 上一主题 下一主题

战争机器(2017年上映)

主演布拉德·皮特 / 安东尼·海斯 / 约翰·马加罗 / 安东尼·迈克尔·豪尔 / 艾莫里·科恩
导演大卫·米奇欧德
类型喜剧 剧情 战争 
地区美国 
片长121分钟
画质4K HDR 原盘
音轨Dolby TrueHD 5.1 
评分豆瓣6.1分
电影【战争机器】原盘信息
 

加入蓝光高清网,轻松下载最新4k资源

您需要 登录 才可以下载或查看,没有帐号?立即注册

x
本帖最后由 蓝鸟 于 2020-10-20 08:38 编辑 1 ^2 k- @1 p" f" Q5 W5 D
' M( b' I# T0 Y6 Z- B2 O3 _
简       介3 r8 c$ h9 r' |8 F5 ]* H
1 B3 K  g! M: R8 y
  《战争机器》改编自已故记者迈克尔·哈斯汀斯的畅销书《操纵者:阿富汗战争的可怕内幕》,影片将以黑色幽默的形式聚焦美国军工联合体。原著中的核心人物为以美国前任驻阿富汗美军最高指挥官斯坦利·麦克里斯特尔为原型的四星上将。据悉,布拉德·皮特将饰演该角色,他策划并发动了阿富汗战争。为了以全新方法赢得这场“不可能”的战争,将军与他的下属们可谓煞费苦心。他们一方面要主导国际联盟,掌控军事需求以及华盛顿的军事政策,还要满足媒体的报道需求,更要花费精力“管理战争”——要时时刻刻与身在战场中的人保持联系。1 J$ d! F% J; ]$ x2 b% Q
- g7 d( k" V( l/ T  y3 {8 G4 \

" i& P5 u, N; i7 ~' K影片参数
& ~% t+ _* [: J- j4 h% m
The Operators/战争机器4k War.Machine.2017.2160p.NF.WEB-DL.x265.10bit.HDR.DD5.1-4k电影信息
* T- ~( `5 N" ^/ r, i! O6 M: a  ]7 |4 EVideo
, e) j4 w2 @+ j3 BID : 1
& x. d2 F5 J5 `4 nFormat : HEVC" M, }5 S' g+ L6 P8 m: n4 q
Format/Info : High Efficiency Video Coding
! @6 T* t; T0 WFormat profile : Main 10@L5@Main
' S/ P; i- D& kHDR format : SMPTE ST 2086, HDR10 compatible; \5 W' T9 a' R# q& p- k
Codec ID : V_MPEGH/ISO/HEVC
1 H  L$ k/ W! M6 E* [' z$ ?, v6 x4 KDuration : 2 h 1 min+ G7 s+ g2 p8 P: V1 a
Bit rate : 15.2 Mb/s: E% Q1 e4 o& m
Width : 3 840 pixels
8 o- C0 L0 x: S/ @) x. xHeight : 2 160 pixels$ X2 g, p( o8 v0 ^/ E8 n+ U% M- D
Display aspect ratio : 16:9
/ a% Q9 E  ^- y4 S- QFrame rate mode : Constant
* V0 ~  d  n" _' E5 ^Frame rate : 24.000 FPS$ ^6 V1 @) t% v! s! c+ w
Color space : YUV  P2 ?, T3 r+ H6 t- _7 f
Chroma subsampling : 4:2:0 (Type 2)) K8 D) t" f" S" H4 ~
Bit depth : 10 bits% v! o5 e$ I& V4 g+ `7 ?
Bits/(Pixel*Frame) : 0.076. A) E  v$ ?6 m4 m& q7 ~( k6 A
Stream size : 12.9 GiB (97%)  X5 v% V$ H( ?, g6 S
Default : Yes
  M3 |2 ^4 y0 M' J+ v7 L. Q, lForced : No
- F. n- [1 G* M4 Y" IColor range : Limited
, V1 H5 [) q# I. U. wColor primaries : BT.2020
' r7 l3 R" |0 C, m; ~Transfer characteristics : PQ. {, [4 p7 h" Y  U* V
Matrix coefficients : BT.2020 non-constant
: Y# `5 ]: X% A; s( ?% x1 vMastering display color primaries : Display P3
% a2 b+ M: O" W' f8 T- i' |Mastering display luminance : min: 0.0050 cd/m2, max: 4000 cd/m2
, q1 j8 Y" p# T2 C6 ]6 dMaximum Content Light Level : 1374 cd/m2
5 n" t. B& S3 ~; ]- U7 xMaximum Frame-Average Light Level : 562 cd/m2$ z* v, Y+ |* C/ K$ h

) `; b3 N- B$ y7 K8 ?7 m/ c& CAudio
: F! V8 D- U& r0 f) H& VID : 2& f1 c8 L5 p+ H' H
Format : AC-3" Z& m$ Q, Z4 W/ X
Format/Info : Audio Coding 3
7 F' I: b9 P+ A3 r% I; e1 ACommercial name : Dolby Digital. J4 k9 p* c0 T
Codec ID : A_AC33 M' R1 ~, y* m9 L
Duration : 2 h 2 min# O8 |8 g1 V8 L; x
Bit rate mode : Constant& c2 a  V! D3 P6 J. L
Bit rate : 384 kb/s5 C+ i* d0 v1 x# c5 ^0 O
Channel(s) : 6 channels
* S% l$ I5 h/ R0 F7 n' b. p1 l( PChannel layout : L R C LFE Ls Rs
. v1 S7 \: }' W$ ZSampling rate : 48.0 kHz& U5 A2 _1 ^9 m& i* g' s( x- O+ q
Frame rate : 31.250 FPS (1536 SPF)5 Y  t/ v8 a$ h9 P) e  r) ^
Compression mode : Lossy3 p, ]. `* P" A9 m# k
Stream size : 337 MiB (2%)
" Q9 `3 [4 H0 TLanguage : English. Y$ T$ S- `% r% E( @
Service kind : Complete Main* d2 u- z* O, W: j& l1 U% c) Z
Default : Yes; f% a# M9 ?! p. v
Forced : No
. @- y2 U4 p# g/ x7 ?% }Encoded date : UTC 2017-05-13 00:12:44
; d5 z) [0 u  ~, Q: d  S
. o' V* [. P, m4 ^# D/ m
精彩剧照
: ?/ Z% k, K( K0 d+ A+ D) h9 L/ }6 v

战争机器4k War.Machine.2017.2160p.NF.WEB-DL.x265.10bit.HDR.DD5.1-4k电影下载—13.28 GB

战争机器4k War.Machine.2017.2160p.NF.WEB-DL.x265.10bit.HDR.DD5.1-4k电影下载—13.28 GB
5 x2 x! G$ {0 V0 u' H( V" W& \
9 j7 ]9 O2 X3 Y

# i' x9 m4 f# Z$ U& d
蓝光高清网提示您  点击下方附件名称  马上开始下载- G1 E9 d- v: q9 F
) c5 n9 C" V3 U; n
The Operators/战争机器4k War.Machine.2017.2160p.NF.WEB-DL.x265.10bit.HDR.DD5.1-4k电影下载
% `% y7 W1 @2 j4 D$ U7 W/ X
" C% R+ E  v/ `战争机器4k War.Machine.2017.2160p.NF.WEB-DL.x265.10bit.HDR.DD5.1【13.28 GB】6 F% ~! q% x, \9 W  P3 E3 D
战争机器4k War.Machine.2017.2160p.NF.WEB-DL.x265.10bit.HDR.DD5.1-PLAYREADY.torrent (66.94 KB, 下载次数: 8)

5 r( \7 z4 p+ S9 f. e9 K5 I$ U
! p9 f5 U* ]6 j
  _" I5 k" D, _5 J  l2 ~# P  h5 \
战争机器中文字幕下载) c5 ~/ |# I* L) K0 s& M
War.Machine.2017.1080p.NF.WEBRip.DD5.1.x264-SB.rar (205 KB, 下载次数: 4)

3 H2 o( I/ K) E0 Z. p8 G
+ S. B2 U5 p! {
加入蓝光高清网VIP会员  无限制下载本站所有资源---点这里

资源下载、资源播放、字幕使用、无法下载等常见问题---点这里
回复

使用道具 举报

 

精彩评论6

正序浏览
gdlmxia 发表于 2020-10-20 10:39:54 | 显示全部楼层
 
太好啦&萬分感謝版主的無私發佈分享%
回复

使用道具 举报

 
wrangler7 发表于 2020-10-22 08:12:25 | 显示全部楼层
 
非常感谢蓝光高清网分享的各种知识和资源,祝蓝光高清网越来越好
回复

使用道具 举报

 
wrangler7 发表于 2020-10-23 08:10:09 | 显示全部楼层
 
非常感谢蓝光高清网分享的各种知识和资源,祝蓝光高清网越来越好
回复

使用道具 举报

 
as2002 发表于 2020-10-25 23:06:58 | 显示全部楼层
 

* W5 x, {! j7 B非常感谢蓝光高清网给大家的享乐4k,祝蓝光高清网越办越好!
回复

使用道具 举报

 
wrangler7 发表于 2020-10-26 08:32:45 | 显示全部楼层
 

% v2 l  a. C) B9 C4 j6 S! s& D天天访问蓝光高清网  天天打卡  习惯了
回复

使用道具 举报

 
侠客 发表于 2020-10-28 13:33:24 | 显示全部楼层
 
老大辛苦了
回复

使用道具 举报

 
您需要登录后才可以回帖 登录 | 立即注册

本版积分规则

0关注

1粉丝

91145帖子

  • 版块推荐
  • 百宝箱

电影推荐

更多+

热门电影

更多+

关注我们:微信服务号

官方微信

手机版

蓝光高清网

专注4k电影、4k视频、VR视频、高清电影、蓝光原盘资源

本站内容部分由用户自主分享和转载自互联网,转载目的在于传递更多信息,并不代表本网赞同其观点和对其真实性负责。

如有侵权、违反国家法律政策行为,请联系我们,我们会第一时间及时清除和处理!

举报反馈邮箱:lanniao@1080pro.net

Copyright   ©2019-2020  蓝光高清网    |网站地图