开通会员
全站资源畅享下载
4k原盘抢先下载
免高清币下载
会员用户组特权
开通会员
上传
收藏
首页
开启左侧

[4K高清美剧] 如何在网上卖迷幻药 第一季4k How.To.Sell.Drugs.Online.Fast.S01.GERMAN.2160p.WEBRip.DDP5.1.x265-4k美剧下载—20.51 GB

[复制链接]
蓝鸟 发表于 2020-10-21 10:24:09 | 显示全部楼层 |阅读模式 打印 上一主题 下一主题

如何在网上卖迷幻药(上映日期:2019)4K(3840x2160)

简介如何把女友校园毒贩那里赢回来?对于莫瑞兹来说,答案显而易见:卖更棒的迷幻药。在卧室里,莫瑞兹与好友伦尼一起在网上开始贩毒,并出人意料地大获成功。不久后,意外成为毒贩的他们遇到了毒品行当最常见的问题:满足市场需求、品质控制,最重要的是不被抓到。《如何在网上卖迷幻药》是一个现代故事,讲述了失恋、友情的起起落落以及成长过程中所面临的阻碍
导演阿尔内·菲尔杜森 / 拉尔斯·蒙塔格
主演马克西米利安·蒙特 / 丹尼尔·卡伯 / 莱娜·克棱克 / 达米安·哈顿 / 莱昂尼·韦斯洛
类型喜剧 爱情 犯罪 
地区德国
声道5.1声道
编码其他DD
状态第一季(完结)
评分豆瓣8.3分
 

加入蓝光高清网,轻松下载最新4k资源

您需要 登录 才可以下载或查看,没有帐号?立即注册

x
影片参数
新世纪线上贩毒(港) / 全欧最酷线上药头(台) / 如何(快速地)在网上卖迷幻药 / 不要在家里尝试 / Don't Try This At Home/如何在网上卖迷幻药 第一季4k How.To.Sell.Drugs.Online.Fast.S01.GERMAN.2160p.WEBRip.DDP5.1.x265-4k美剧信息
Video
ID : 1
Format : HEVC
Format/Info : High Efficiency Video Coding
Format profile : Main@L5.1@High
Codec ID : V_MPEGH/ISO/HEVC
Duration : 32 min 7 s
Bit rate : 18.3 Mb/s
Width : 3 840 pixels
Height : 2 160 pixels
Display aspect ratio : 16:9
Frame rate mode : Constant
Frame rate : 25.000 FPS
Color space : YUV
Chroma subsampling : 4:2:0
Bit depth : 8 bits
Bits/(Pixel*Frame) : 0.088
Stream size : 4.11 GiB (93%)
Writing library : x265 3.3+29-1e3dbf09ee4f:[Windows][GCC 9.3.1][64 bit] 8bit+10bit
Encoding settings : cpuid=1111039 / frame-threads=4 / numa-pools=28 / wpp / no-pmode / no-pme / no-psnr / no-ssim / log-level=2 / input-csp=1 / input-res=3840x2160 / interlace=0 / total-frames=0 / level-idc=51 / high-tier=1 / uhd-bd=0 / ref=4 / no-allow-non-conformance / no-repeat-headers / annexb / aud / hrd / info / hash=0 / no-temporal-layers / no-open-gop / min-keyint=25 / keyint=250 / gop-lookahead=0 / bframes=4 / b-adapt=2 / b-pyramid / bframe-bias=0 / rc-lookahead=20 / lookahead-slices=4 / scenecut=40 / hist-scenecut=0 / radl=0 / no-splice / no-intra-refresh / ctu=64 / min-cu-size=8 / rect / no-amp / max-tu-size=32 / tu-inter-depth=1 / tu-intra-depth=1 / limit-tu=0 / rdoq-level=0 / dynamic-rd=0.00 / no-ssim-rd / signhide / no-tskip / nr-intra=0 / nr-inter=0 / no-constrained-intra / no-strong-intra-smoothing / max-merge=3 / limit-refs=1 / no-limit-modes / me=1 / subme=2 / merange=57 / temporal-mvp / no-frame-dup / no-hme / weightp / no-weightb / no-analyze-src-pics / deblock=-3:-3 / no-sao / no-sao-non-deblock / rd=3 / selective-sao=0 / early-skip / rskip / no-fast-intra / no-tskip-fast / no-cu-lossless / b-intra / no-splitrd-skip / rdpenalty=0 / psy-rd=2.00 / psy-rdoq=0.00 / no-rd-refine / no-lossless / cbqpoffs=0 / crqpoffs=0 / rc=crf / crf=19.0 / qcomp=0.60 / qpstep=4 / stats-write=0 / stats-read=0 / vbv-maxrate=160000 / vbv-bufsize=160000 / vbv-init=0.9 / crf-max=0.0 / crf-min=0.0 / ipratio=1.40 / pbratio=1.30 / aq-mode=2 / aq-strength=1.00 / no-cutree / zone-count=0 / no-strict-cbr / qg-size=32 / no-rc-grain / qpmax=69 / qpmin=0 / no-const-vbv / sar=1 / overscan=0 / videoformat=5 / range=0 / colorprim=1 / transfer=1 / colormatrix=1 / chromaloc=0 / display-window=0 / cll=0,0 / min-luma=0 / max-luma=255 / log2-max-poc-lsb=8 / vui-timing-info / vui-hrd-info / slices=1 / no-opt-qp-pps / no-opt-ref-list-length-pps / no-multi-pass-opt-rps / scenecut-bias=0.05 / hist-threshold=0.01 / no-opt-cu-delta-qp / no-aq-motion / no-hdr10 / no-hdr10-opt / no-dhdr10-opt / no-idr-recovery-sei / analysis-reuse-level=0 / analysis-save-reuse-level=0 / analysis-load-reuse-level=0 / scale-factor=0 / refine-intra=0 / refine-inter=0 / refine-mv=1 / refine-ctu-distortion=0 / no-limit-sao / ctu-info=0 / no-lowpass-dct / refine-analysis-type=0 / copy-pic=1 / max-ausize-factor=1.0 / no-dynamic-refine / no-single-sei / no-hevc-aq / no-svt / no-field / qp-adaptation-range=1.00 / no-scenecut-aware-qpconformance-window-offsets / right=0 / bottom=0 / decoder-max-rate=0
Language : English
Default : Yes
Forced : No
Color range : Limited
Color primaries : BT.709
Transfer characteristics : BT.709
Matrix coefficients : BT.709


Audio #1
ID : 2
Format : E-AC-3
Format/Info : Enhanced AC-3
Commercial name : Dolby Digital Plus
Codec ID : A_EAC3
Duration : 32 min 25 s
Bit rate mode : Constant
Bit rate : 640 kb/s
Channel(s) : 6 channels
Channel layout : L R C LFE Ls Rs
Sampling rate : 48.0 kHz
Frame rate : 31.250 FPS (1536 SPF)
Compression mode : Lossy
Delay relative to video : 2 ms
Stream size : 148 MiB (3%)
Title : Dolby Digital Plus
Language : German
Service kind : Complete Main
Default : Yes
Forced : No


Audio #2
ID : 3
Format : E-AC-3
Format/Info : Enhanced AC-3
Commercial name : Dolby Digital Plus
Codec ID : A_EAC3
Duration : 32 min 25 s
Bit rate mode : Constant
Bit rate : 640 kb/s
Channel(s) : 6 channels
Channel layout : L R C LFE Ls Rs
Sampling rate : 48.0 kHz
Frame rate : 31.250 FPS (1536 SPF)
Compression mode : Lossy
Delay relative to video : 2 ms
Stream size : 148 MiB (3%)
Title : Dolby Digital Plus
Language : English
Service kind : Complete Main
Default : No
Forced : No


Text #1
ID : 4
Format : UTF-8
Codec ID : S_TEXT/UTF8
Codec ID/Info : UTF-8 Plain Text
Duration : 26 min 5 s
Bit rate : 0 b/s
Count of elements : 4
Stream size : 127 Bytes (0%)
Language : English
Default : No
Forced : No


Text #2
ID : 5
Format : UTF-8
Codec ID : S_TEXT/UTF8
Codec ID/Info : UTF-8 Plain Text
Duration : 31 min 30 s
Bit rate : 64 b/s
Count of elements : 408
Stream size : 14.8 KiB (0%)
Title : Forced
Language : English
Default : Yes


蓝光高清网提示您  点击下方附件名称  马上开始下载

新世纪线上贩毒(港) / 全欧最酷线上药头(台) / 如何(快速地)在网上卖迷幻药 / 不要在家里尝试 / Don't Try This At Home/如何在网上卖迷幻药 第一季4k How.To.Sell.Drugs.Online.Fast.S01.GERMAN.2160p.WEBRip.DDP5.1.x265-4k美剧下载

如何在网上卖迷幻药 第一季4k How.To.Sell.Drugs.Online.Fast.S01.GERMAN.2160p.WEBRip.DDP5.1.x265【20.51 GB】

如何在网上卖迷幻药 第一季4k How.To.Sell.Drugs.Online.Fast.S01.GERMAN.2160p.WEBRi.torrent (52.37 KB, 下载次数: 2)



加入蓝光高清网VIP会员  无限制下载本站所有资源---点这里

资源下载、资源播放、字幕使用、无法下载等常见问题---点这里
回复

使用道具 举报

 
您需要登录后才可以回帖 登录 | 立即注册

本版积分规则

0关注

1粉丝

91145帖子

  • 版块推荐
  • 百宝箱

电影推荐

更多+

热门电影

更多+

关注我们:微信服务号

官方微信

手机版

蓝光高清网

专注4k电影、4k视频、VR视频、高清电影、蓝光原盘资源

本站内容部分由用户自主分享和转载自互联网,转载目的在于传递更多信息,并不代表本网赞同其观点和对其真实性负责。

如有侵权、违反国家法律政策行为,请联系我们,我们会第一时间及时清除和处理!

举报反馈邮箱:lanniao@1080pro.net

Copyright   ©2019-2020  蓝光高清网    |网站地图