开通会员
全站资源畅享下载
4k原盘抢先下载
免高清币下载
会员用户组特权
开通会员
上传
收藏
首页
开启左侧

精神错乱4K.Unhinged.2020.HDR.2160p.WEB.H265-4k电影下载—9..59 GB

[复制链接]
蓝鸟 发表于 2020-10-24 22:57:28 | 显示全部楼层 |阅读模式 打印 上一主题 下一主题

精神错乱(2020年上映)

主演罗素·克劳 / 凯伦·皮斯托里斯 / 加布里埃尔·贝特曼 / 吉米·辛普森 / 奥斯汀·麦肯齐
导演德瑞克·伯特
类型惊悚 
地区美国 
片长90分钟
画质4K HDR 原盘
音轨Dolby TrueHD 5.1 Dolby Atmos 
评分豆瓣6.1分
电影【精神错乱】原盘信息
 

加入蓝光高清网,轻松下载最新4k资源

您需要 登录 才可以下载或查看,没有帐号?立即注册

x
简       介
* V6 X( A: t' ]4 v% b% b) a* X
/ T) ^) V6 J" ]. t' i' T! G( C0 W  讲述两辆车路上发生摩擦,“公路泄愤”升级:克劳饰演的男子抑制不住愤怒发飙了,拿着锤子和刀追到了对方母子家里,破坏、跟踪、撞车、纠缠身边人…
% W8 S! R$ T, e# P; r- Z5 u& w
. g/ ]2 T) j5 Y8 x6 q3 o
7 T/ W, U( X$ A0 ~5 n4 u
影片参数4 |0 o! x! r: U# u. u% P
爆怒时速(港) / 超危险驾驶(台) / 精神失常/精神错乱4K.Unhinged.2020.HDR.2160p.WEB.H265-4k电影信息
2 b- a$ \, K7 m/ `4 [$ _Video
8 t0 {. _; M0 f9 `# k4 ~ID : 15 p" E# D; S* ~$ J  U
Format : HEVC6 V9 v, R" b* z. q; q9 f: T4 I% J
Format/Info : High Efficiency Video Coding
5 \; t8 x& Y& R& B3 bFormat profile : Main 10@L5@Main" v8 V$ S( ~2 c+ |$ m2 ]! a
Codec ID : V_MPEGH/ISO/HEVC+ b8 C( g" _$ D, A
Duration : 1 h 30 min/ C) {- r" v$ H, T
Bit rate : 14.8 Mb/s
: Z- ]2 V( g, M! `Width : 3 840 pixels
, f7 U( U( i! |Height : 2 160 pixels
. ^8 q; C$ Y% \; C8 ~Display aspect ratio : 16:9
2 q: G  _6 G( p4 `; K# k. Q6 _9 MFrame rate mode : Constant9 ~$ J6 L9 z: H' b: I4 P: C; J6 R7 f
Frame rate : 23.976 (24000/1001) FPS; D& w) p  r  E& c9 Q! b
Color space : YUV4 h& {+ ]2 A/ ^+ z, f
Chroma subsampling : 4:2:0 (Type 2)8 W& Q6 r+ @/ Y+ x, q$ C- O
Bit depth : 10 bits
( P7 R( Z/ A) OBits/(Pixel*Frame) : 0.074# F9 a; G" q0 D: S* S& U9 J5 I' @
Stream size : 9.32 GiB (98%)
9 V% _' c3 x" Q8 V0 |! _, B) j' JLanguage : English; c: b0 _2 Q3 U* Z# ^
Default : Yes# m' {3 @5 G! w0 t+ @( j
Forced : No
$ l" T. y" N8 {3 c# GColor range : Limited" v2 X" Q. u$ ]0 J9 y- O. L" j" H) i
Color primaries : BT.2020
5 P. }" s, `1 B; K+ _; p$ K" eTransfer characteristics : PQ" e  e* i+ K! i# V0 j
Matrix coefficients : BT.2020 non-constant
. D/ G4 F- T* V) O  x9 S3 Q+ ~: K' d( D$ u# g6 n- D( P
0 a, r7 U& r! {  e; `6 Z2 B
Audio
0 w+ {' z! b) V, ^+ r* |ID : 2; ]* s6 k* {4 k+ j0 n
Format : E-AC-33 K9 _# j' j/ j$ y3 N) h4 n0 _
Format/Info : Enhanced AC-3
7 Z6 t1 B  h  _: B2 GCommercial name : Dolby Digital Plus
: A! Y# o5 w5 }2 y/ ?Codec ID : A_EAC3; `% L" O, X# P; g) Q4 ~- R: r, p
Duration : 1 h 30 min
$ Y% ~% _* T: ~' B5 O! B1 MBit rate mode : Constant
, C# V* w* V( ~5 G; }3 O6 gBit rate : 256 kb/s( @9 R: x6 G+ W5 k9 N
Channel(s) : 6 channels
% l1 G3 ?# u/ ~8 n5 y3 O" t9 X# bChannel layout : L R C LFE Ls Rs
% E" P6 n' S3 X2 d, R/ w8 A8 YSampling rate : 48.0 kHz& _6 A1 h8 E) k: ^  I4 S) \
Frame rate : 31.250 FPS (1536 SPF)# G( Z" V& u4 M; g  z' r
Compression mode : Lossy' `" n* F7 r0 D( M
Stream size : 165 MiB (2%)2 l" y9 \( @4 D; ?% @* Q, M
Title : English
0 i1 ^6 M3 I4 G# V+ A5 {" |5 T, O, |9 GLanguage : English
' H1 t* m7 t( V1 U7 ?8 oService kind : Complete Main
  Q: S  |- H* q* x( ^Default : Yes% j7 o) I. F) X
Forced : No1 U) H7 W3 Y6 h) V( V
4 F1 O9 L' z6 |5 m& r# q
# j  \) k* K- h& c& A+ l
Text
3 @% a# Y- O# N' D) ^) |  x+ yID : 38 V& i" n# ], N& o
Format : UTF-8( t/ T; T0 r6 P/ \3 G! Y9 o3 c9 U
Codec ID : S_TEXT/UTF8
$ w5 k6 A. A2 HCodec ID/Info : UTF-8 Plain Text
4 [! s+ j$ n8 t' ZDuration : 1 h 21 min! A: T3 @4 w" H4 D  v- t: h
Bit rate : 61 b/s
/ X# v( I# `7 G/ z* SCount of elements : 1193
4 v% {% A. L! L- `; j" qStream size : 36.5 KiB (0%)
  W0 m6 a2 h% ~" kTitle : English (SDH)% Y% d5 f1 I# y4 D
Language : English( `' V: _; o) f  K
Default : No: f; e3 c$ }. y4 A) X7 K
Forced : No

4 E( O+ ?( H7 Q# f1 j  n% ?$ V
5 K* W9 i  ^8 v; Y4 }8 l! u
$ g/ j( E, P+ z! u
' Y" V. U7 N# V8 t: A/ H
蓝光高清网提示您  点击下方附件名称  马上开始下载
, t. c" k3 I% f  m6 w$ c
( f0 J1 u2 X* c

, A# C/ [2 E* q多版本下载时请注意区分+ V' c& p6 o8 `/ |# `* S
5 J; _, d, F. c6 J& M
- v, {2 O* A5 E1 w. D
爆怒时速(港) / 超危险驾驶(台) / 精神失常/精神错乱4K.Unhinged.2020.HDR.2160p.WEB.H265-4k电影下载
' O5 y1 v1 W# e* b1 h2 I) Y5 S+ ^5 |7 F; T
精神错乱4K.Unhinged.2020.HDR.2160p.WEB.H265【9.59 GB】
, @3 l6 _8 [) f+ m 精神错乱4K.Unhinged.2020.HDR.2160p.WEB.H265-HOTLiPS.torrent (48.63 KB, 下载次数: 6)

6 N; z) D% X& K, b3 Q
2 ?! R$ H9 O* Z
- n6 L/ D- l4 U# ^9 o, L
精神错乱中文字幕下载
! d4 E& o7 `2 W3 @1 C Unhinged2020.srt (111.99 KB, 下载次数: 6)
$ ^! u9 K; i2 H. Z  C: h

/ r. ?/ R6 W% H. w1 o  Y

: y6 {- ^0 Q  l! r1 g, Q$ K. z
加入蓝光高清网VIP会员  无限制下载本站所有资源---点这里

资源下载、资源播放、字幕使用、无法下载等常见问题---点这里
回复

使用道具 举报

 

精彩评论6

正序浏览
wrangler7 发表于 2020-10-26 08:15:49 | 显示全部楼层
 
- G" Y5 j& ^( B
祝蓝光高清网越办越红火。
回复

使用道具 举报

 
wrangler7 发表于 2020-10-27 08:10:25 | 显示全部楼层
 
. \5 O  G" X: i7 k& f* t
天天访问蓝光高清网  天天打卡  习惯了
回复

使用道具 举报

 
wrangler7 发表于 2020-10-28 08:12:50 | 显示全部楼层
 

  w) e& J# _7 S; Y* Y4 X祝蓝光高清网越办越红火。
回复

使用道具 举报

 
kingjlc 发表于 2020-10-28 13:43:34 | 显示全部楼层
 

, T7 Q0 }) S+ ~( L7 y* A非常感谢蓝光高清网给大家的享乐4k,祝蓝光高清网越办越好!
回复

使用道具 举报

 
wrangler7 发表于 2020-10-29 08:17:01 | 显示全部楼层
 
. k/ |; d. X: w! X& v7 U
天天访问蓝光高清网  天天打卡  习惯了
回复

使用道具 举报

 
侠客 发表于 2020-10-31 14:16:12 | 显示全部楼层
 
老大辛苦了
回复

使用道具 举报

 
您需要登录后才可以回帖 登录 | 立即注册

本版积分规则

0关注

1粉丝

91145帖子

  • 版块推荐
  • 百宝箱

电影推荐

更多+

热门电影

更多+

关注我们:微信服务号

官方微信

手机版

蓝光高清网

专注4k电影、4k视频、VR视频、高清电影、蓝光原盘资源

本站内容部分由用户自主分享和转载自互联网,转载目的在于传递更多信息,并不代表本网赞同其观点和对其真实性负责。

如有侵权、违反国家法律政策行为,请联系我们,我们会第一时间及时清除和处理!

举报反馈邮箱:lanniao@1080pro.net

Copyright   ©2019-2020  蓝光高清网    |网站地图