开通会员
全站资源畅享下载
4k原盘抢先下载
免高清币下载
会员用户组特权
开通会员
上传
收藏
首页
开启左侧

亿万富翁4k Kajillionaire.2020.2160p.WEB.H265-4k电影下载—11.13 GB

[复制链接]
蓝鸟 发表于 2020-10-24 23:02:36 | 显示全部楼层 |阅读模式 打印 上一主题 下一主题

亿万富翁(2020年上映)

主演埃文·蕾切尔·伍德 / 吉娜·罗德里格兹 / 德博拉·温格 / 理查德·詹金斯 / 达明·乔伊·伦道夫
导演米兰达·裘丽
类型剧情 犯罪 
地区美国 
片长106分钟
画质4K 原盘
音轨Dolby TrueHD 5.1 Dolby Atmos 
评分豆瓣7.1分
电影【亿万富翁】原盘信息
 

加入蓝光高清网,轻松下载最新4k资源

您需要 登录 才可以下载或查看,没有帐号?立即注册

x
简       介* k) M3 n: N6 p+ b8 K! |
7 p  P& B% `; M1 _0 R" u* ^
  这部电影是多媒体艺术家米兰达·裘丽的新片,它是一部关于骗子家庭的原创喜剧。骗子Theresa和Robert花了26年时间把女儿Old Dolio(德妹扮演)带大,让她抓住一切机会行骗和偷窃。但当父母把一个素不相识的女人梅兰妮请来做计划中的工作时,家里的日常生活就变得不正常了。梅兰妮性格泼辣可爱,颠覆了Old Dolio的家庭和世界观。Old Dolio渴望传统家庭的温暖,而梅兰妮却享受着诈骗犯的刺激生活。
8 P9 n2 p, B4 [3 h: k8 l
8 H& h0 [* f* @. [
1 A- {0 S# S7 V4 Q9 c; C
影片参数0 U, d# O$ \- D9 N9 L
大富翁 / 超亿万富翁/亿万富翁4k Kajillionaire.2020.2160p.WEB.H265-4k电影信息* x/ t2 ^+ n4 ?6 |& s# ]9 ?
Video5 c1 K8 _$ U, K6 \4 O; {% W8 r
ID : 1
# f* A8 C, Y+ R- N( T, hFormat : HEVC: ^! c3 `* K  Z' ?
Format/Info : High Efficiency Video Coding
) G, E# I$ z) V1 q0 y% ~; ?' NFormat profile : Main 10@L5@Main
% J. {) `2 a% F6 H2 mCodec ID : V_MPEGH/ISO/HEVC. g$ n7 g$ }- _+ @9 d3 Q
Duration : 1 h 44 min! e/ D* n* F6 v9 R5 k
Bit rate : 14.3 Mb/s. G% }" N) w' J: H( ^
Width : 3 840 pixels; T4 a% g. l) H, t
Height : 2 160 pixels
  c4 [- ?$ G  n) w6 zDisplay aspect ratio : 16:97 N! j% s! G( J8 h- W
Frame rate mode : Constant% W9 ]7 y" f7 {$ V2 |
Frame rate : 23.976 (24000/1001) FPS3 C, c* D* R5 Y/ M- ^5 ^
Color space : YUV& H6 M7 I" r4 P7 h* M; Y. @" ^
Chroma subsampling : 4:2:0 (Type 2)
5 U( }) i( K1 }4 z2 m& t+ @0 IBit depth : 10 bits" C1 c: s# x0 l
Bits/(Pixel*Frame) : 0.0724 C. z# O$ ~8 K1 x; ?! Y
Stream size : 10.5 GiB (96%)
5 X' o7 a. {  hDefault : Yes3 e; T4 n% d7 X! w, g  Y5 N- U2 G
Forced : No
9 g$ H( _' e4 s3 U  \7 DColor range : Limited
7 u8 G- {, s* JColor primaries : BT.2020% E) ~9 ~3 ^9 M9 y2 V6 I4 o
Transfer characteristics : PQ
4 J2 z6 d: V2 J: L8 G# r* gMatrix coefficients : BT.2020 non-constant, ]! E7 G% n( B- l5 e
Maximum Content Light Level : 568 cd/m2! E. d; y' L1 l2 p6 x+ X4 |3 A' u
Maximum Frame-Average Light Level : 148 cd/m2; a6 U' w4 F, U8 ^

1 M0 q/ L5 Y" B2 d, `8 vAudio8 i0 c) [  s$ X. L& {0 |  e8 ?
ID : 2
1 g- `# `$ M+ }: t0 s" U0 `) dFormat : E-AC-3
# B* L: D% j: Y6 tFormat/Info : Enhanced AC-3
3 D& N# F* ~& bCommercial name : Dolby Digital Plus. p0 D5 U( z9 f; C3 c
Codec ID : A_EAC3
9 m! c& Q( {, Z, WDuration : 1 h 44 min: r" c) {# C. S2 z7 T  ]9 J2 A
Bit rate mode : Constant/ }! X6 c' K& p( X
Bit rate : 256 kb/s# ~  a. r' H) J! }  d8 h6 ^, W+ ]
Channel(s) : 6 channels, U! ?/ e7 p# j) B' d5 |4 A* E% R
Channel layout : L R C LFE Ls Rs
. `9 S" R6 ~: |" Q5 W- zSampling rate : 48.0 kHz
. p! Y) k) k2 m2 N$ RFrame rate : 31.250 FPS (1536 SPF)
1 Z6 P  `4 M6 I/ ]) g: PCompression mode : Lossy
: q* H; q; l8 U+ fStream size : 192 MiB (2%)
6 p- q6 ~: W( j9 QLanguage : English/ }) w) ]5 B$ V1 z' E1 [# C% {3 }3 u
Service kind : Complete Main
( ^5 M9 _: E- Q1 }Default : Yes
8 @# \+ T% v; J' N* @4 r, NForced : No
* k) Y$ o5 C. H5 P  u  _& }8 Q+ X3 o3 W9 |0 ]
Text
- T6 C6 D3 q$ d2 w' Q- z# \6 JID : 3
9 l# I! n3 l  I0 PFormat : UTF-8
; ]' I& @% j8 S. }' M) K) `) ]Codec ID : S_TEXT/UTF8
* o4 _' q+ I. v* ]( RCodec ID/Info : UTF-8 Plain Text
. |2 r* h* o- n. {- @' ZLanguage : English
; c' {, Y- E$ zDefault : No% k. @3 B$ c5 C* {
Forced : No

+ I& m# o' h4 n/ Y7 K. ?
8 r. W/ z6 f/ e4 p8 m, K

: q8 e5 a' y" ^" n+ j6 ]2 B
蓝光高清网提示您  点击下方附件名称  马上开始下载: P' _9 M7 |& ~6 F

% B! k3 J; c/ R

5 B* u4 }) N0 Q" r" w, L多版本下载时请注意区分
8 `! S5 t* c% m+ \
6 O$ J& \3 j( B6 O6 Y' ^

- ~) \+ ?9 [* [4 o0 w# E, L# ^大富翁 / 超亿万富翁/亿万富翁4k Kajillionaire.2020.2160p.WEB.H265-4k电影下载: w1 k2 H3 E1 ^* K/ V4 [+ I0 h4 N8 \
# \: ]# x/ ~" h, E* b0 O2 M5 ~  u

/ i6 N1 ]4 b9 V8 W. k亿万富翁4k Kajillionaire.2020.2160p.WEB.H265【11.13 GB】2 y7 ]# @8 A2 k( U* b! v
亿万富翁4k Kajillionaire.2020.2160p.WEB.H265-NAISU.torrent (56.32 KB, 下载次数: 5)

! w8 Y+ T5 _, ]- P1 j( l/ S# c* a
4 \' u" t3 u! A( w7 r) N

0 ?" L2 @" n, O5 \6 F
亿万富翁中文字幕下载1 |# i: v9 |) e: `$ M7 w( C; f
Kajillionaire.2020.1080p.WEBRip.DD5.1.x264-CM.eng.srt (89.19 KB, 下载次数: 7)

" \$ S; W8 o6 H& w

+ S7 A) H' t8 g9 T* B7 f( T- j
加入蓝光高清网VIP会员  无限制下载本站所有资源---点这里

资源下载、资源播放、字幕使用、无法下载等常见问题---点这里
回复

使用道具 举报

 

精彩评论7

正序浏览
gdlmxia 发表于 2020-10-24 23:54:02 | 显示全部楼层
 
太好啦&萬分感謝版主的無私發佈分享%
回复

使用道具 举报

 
kingjlc 发表于 2020-10-25 18:58:11 | 显示全部楼层
 
非常感谢蓝光高清网分享的各种知识和资源,祝蓝光高清网越来越好
回复

使用道具 举报

 
wrangler7 发表于 2020-10-26 08:14:02 | 显示全部楼层
 
2 m9 e- b+ ]: m: |
感谢蓝光高清网提供的优质资源,希望网站越办越好。
回复

使用道具 举报

 
wrangler7 发表于 2020-10-27 08:31:32 | 显示全部楼层
 

5 C# U; l' P  y/ e8 C! y, ?4 R非常感谢蓝光高清网给大家的享乐4k,祝蓝光高清网越办越好!
回复

使用道具 举报

 
wrangler7 发表于 2020-10-28 08:01:29 | 显示全部楼层
 

9 H. J9 s6 \* H3 S天天访问蓝光高清网  天天打卡  习惯了
回复

使用道具 举报

 
kingjlc 发表于 2020-10-28 13:38:24 | 显示全部楼层
 

) K! I1 M/ R( C* d非常感谢蓝光高清网给大家的享乐4k,祝蓝光高清网越办越好!
回复

使用道具 举报

 
wrangler7 发表于 2020-10-29 08:12:37 | 显示全部楼层
 
+ Q1 J* y- M! t" P8 T7 I& s) o1 k8 I
非常感谢蓝光高清网给大家的享乐4k,祝蓝光高清网越办越好!
回复

使用道具 举报

 
您需要登录后才可以回帖 登录 | 立即注册

本版积分规则

0关注

1粉丝

91145帖子

  • 版块推荐
  • 百宝箱

电影推荐

更多+

热门电影

更多+

关注我们:微信服务号

官方微信

手机版

蓝光高清网

专注4k电影、4k视频、VR视频、高清电影、蓝光原盘资源

本站内容部分由用户自主分享和转载自互联网,转载目的在于传递更多信息,并不代表本网赞同其观点和对其真实性负责。

如有侵权、违反国家法律政策行为,请联系我们,我们会第一时间及时清除和处理!

举报反馈邮箱:lanniao@1080pro.net

Copyright   ©2019-2020  蓝光高清网    |网站地图