开通会员
全站资源畅享下载
4k原盘抢先下载
免高清币下载
会员用户组特权
开通会员
上传
收藏
首页
开启左侧

波拉特2 4k.Borat.Subsequent.Moviefilm.2020.2160p.AMZN.WEBRip.x265.10bit.SDR.DDP5.1-4K电影下载—13.28 GB

[复制链接]
蓝鸟 发表于 2020-10-26 08:57:45 | 显示全部楼层 |阅读模式 打印 上一主题 下一主题

波拉特2(2020年上映)

主演萨莎·拜伦·科恩 / 玛丽亚·巴卡洛娃 / 迈克·彭斯 / 鲁迪·朱利安尼 / 汤姆·汉克斯
导演杰森·威奈勒
类型喜剧 
地区美国 
片长95分钟
画质4K SDR 原盘
音轨Dolby TrueHD 5.1 Dolby Atmos 
评分豆瓣7.6分
电影【波拉特2】原盘信息
 

加入蓝光高清网,轻松下载最新4k资源

您需要 登录 才可以下载或查看,没有帐号?立即注册

x
简       介: U1 h; K9 n' w- b* e' [

! J# G$ }7 n' O. n  To be more specific, this is the Borat Subsequent Moviefilm: Delivery of Prodigious Bribe to American Regime for Make Benefit Once Glorious Nation of Kazakhstan. Chenqui!0 x  l6 z& R* N. _2 v3 f% X& M7 e9 g

$ L( C$ E8 ?% @3 I: ~

2 f) l% t3 k4 |; ~影片参数
6 I$ I; s8 Q+ x( [1 o6 f
波拉特:为了近期式微的哈萨克斯坦的利益送给副总统迈克儿·彭斯的色情猴子礼物 / 波拉特2:为建设伟大祖国哈萨克斯坦而贿赂美国政权 / Borat: Gift of Pornographic Monkey to Vice Premiere Mikhael Pence to Make Benefit Recently Diminished Nation of Kazakhstan/波拉特24k.Borat.Subsequent.Moviefilm.2020.2160p.AMZN.WEBRip.x265.10bit.SDR.DDP5.1-4k电影信息
6 P; O& p1 j1 T5 j6 \+ ?Video# J2 \/ Y7 u+ l2 Y
ID : 1
+ X5 W- e* W9 B: B- x7 Z9 p3 W0 qFormat : HEVC
% h; F8 o8 B0 D! O! b1 U6 GFormat/Info : High Efficiency Video Coding
/ ^4 l. Y$ F: E$ p" c1 N1 {Format profile : Main 10@L5@Main5 x9 |  X4 j# j- [. C: Q
HDR format : SMPTE ST 2086, HDR10 compatible
) A9 b& I0 I5 u; ^8 ]: d% cCodec ID : V_MPEGH/ISO/HEVC# ]; E- A- [: ~' S
Duration : 1 h 35 min4 }' b. m+ Z; q4 ~5 q9 X
Bit rate : 19.2 Mb/s
0 g+ s9 }2 \( T, K. |Width : 3 840 pixels3 L; C, [4 ~2 O# k; ]
Height : 2 160 pixels2 Q* B  D' C, }( G$ `
Display aspect ratio : 16:9
9 r# p. v# c* N+ ~9 b% sFrame rate mode : Constant2 p: ?1 Q/ g; F  }" Z+ m
Frame rate : 23.976 (24000/1001) FPS
: A' X$ d, @% _2 fColor space : YUV0 H- e/ G5 @" C  `1 C: z8 o. ?
Chroma subsampling : 4:2:0
6 E" o  U1 e: w, y( f- M8 w, OBit depth : 10 bits8 u* G* d# w7 G( e1 G- r  }) L' ^
Bits/(Pixel*Frame) : 0.096$ z* V) l" l6 g' m3 F# z8 z
Stream size : 12.9 GiB (97%)7 {! [/ m; U  K# o( r
Default : Yes
( x3 z/ u) C5 E2 X# u; O- JForced : No
$ }# }& U6 @1 o( f$ G! {. CColor range : Full
% E* l4 S! e8 s' m& x( O: f; OColor primaries : BT.20201 @4 t7 P' n1 @. m; o  q- i
Transfer characteristics : PQ. `" G/ h3 J2 q$ `! S; O- }; l
Matrix coefficients : BT.2020 non-constant
& ~) i4 R/ E: J% H. B+ j' u  f' j4 [Mastering display color primaries : Display P3
) P; S% E) j; L& w/ {Mastering display luminance : min: 249.0406 cd/m2, max: 1000 cd/m2
( H- Q! i: m. @# aMaximum Content Light Level : 9996 ]0 f& S) m' x5 Z2 C; d) O2 ^
Maximum Frame-Average Light Level : 209, T- W( z5 A$ A

) z& m# n2 y; ~7 F/ u/ lAudio. B' r: ]# J0 _1 D8 m3 Y% f) c
ID : 29 J: k& V% j& P& A; \
Format : E-AC-3
7 S2 A1 P; l, V5 JFormat/Info : Enhanced AC-3
2 O: L3 ?. Y" D$ ?# ICommercial name : Dolby Digital Plus
8 _- Y- \3 D" G2 A$ S; Y% qCodec ID : A_EAC3
7 U2 Y0 x3 g/ `' \% {  [/ tDuration : 1 h 36 min, z& [, Y4 @3 t. q
Bit rate mode : Constant# T2 q4 h7 C* a0 n1 E
Bit rate : 640 kb/s
9 l1 ^1 G6 w' c; e" A+ iChannel(s) : 6 channels
! c! h1 p& D6 ?Channel layout : L R C LFE Ls Rs% ^2 @6 A( J8 U3 d* c4 |! k
Sampling rate : 48.0 kHz
, e9 f' u* ~5 }3 _1 n- jFrame rate : 31.250 FPS (1536 SPF)5 g7 p$ f- R7 t0 j9 g" W
Compression mode : Lossy# o# k8 S* J9 O& f7 ~! _8 V
Delay relative to video : 23 ms
( J8 Y8 T" J0 A- k" ~, ~Stream size : 440 MiB (3%)2 O) B: x5 l- y, N) ~$ y$ i! h1 E
Language : English  Z0 p4 f* b6 y& k& b
Service kind : Complete Main4 [& k. o$ r  `" o( V) g9 u7 T
Default : Yes) c8 \0 n. p( w4 E6 \
Forced : No

% l$ y1 l( W. {

* C8 h: T( _1 _6 Z
蓝光高清网提示您  点击下方附件名称  马上开始下载
3 e1 s6 n9 `- E" s8 ~9 T3 e! h/ r) y! U
波拉特:为了近期式微的哈萨克斯坦的利益送给副总统迈克儿·彭斯的色情猴子礼物 / 波拉特2:为建设伟大祖国哈萨克斯坦而贿赂美国政权 / Borat: Gift of Pornographic Monkey to Vice Premiere Mikhael Pence to Make Benefit Recently Diminished Nation of Kazakhstan/波拉特24k.Borat.Subsequent.Moviefilm.2020.2160p.AMZN.WEBRip.x265.10bit.SDR.DDP5.1-4K电影下载
! @+ r$ I2 M" A8 T. \! m+ v& H# \3 j0 ?4 ?, m- ^
" V3 u+ B3 [! q4 h
波拉特2   4k.Borat.Subsequent.Moviefilm.2020.2160p.AMZN.WEBRip.x265.10bit.HDR.DDP5.1【13.28 GB】
% O$ L/ g3 d8 c' _- n 波拉特2 4K.Borat.Subsequent.Moviefilm.2020.2160p.AMZN.WEBRip.x265.10bit.H.torrent (66.98 KB, 下载次数: 10)
( s) B% s- }6 n0 Q! j
+ \* B. \, y/ c
波拉特2中文字幕下载5 ]$ h+ n9 |' u4 Y
波拉特2[7.6]Borat.Subsequent.Moviefilm.2020.1080p.WEBRip.x264-RARBG.官译.rar (644.85 KB, 下载次数: 14)

% T( t- E) D& G1 e' _/ y9 L: D8 U# ]$ y% j  `
7 C" R+ e2 @- U
加入蓝光高清网VIP会员  无限制下载本站所有资源---点这里

资源下载、资源播放、字幕使用、无法下载等常见问题---点这里
回复

使用道具 举报

 

精彩评论9

正序浏览
gdlmxia 发表于 2020-10-26 10:07:34 | 显示全部楼层
 
太好啦&萬分感謝版主的無私發佈分享%
回复

使用道具 举报

 
侠客 发表于 2020-10-26 13:26:07 | 显示全部楼层
 
感觉挺不错了
回复

使用道具 举报

 
wrangler7 发表于 2020-10-27 08:08:44 | 显示全部楼层
 
非常感谢蓝光高清网分享的各种知识和资源,祝蓝光高清网越来越好
回复

使用道具 举报

 
侠客 发表于 2020-10-27 14:06:41 | 显示全部楼层
 
感觉真的不错了
回复

使用道具 举报

 
wrangler7 发表于 2020-10-28 07:59:51 | 显示全部楼层
 
非常感谢蓝光高清网分享的各种知识和资源,祝蓝光高清网越来越好
回复

使用道具 举报

 
kingjlc 发表于 2020-10-28 13:37:21 | 显示全部楼层
 
非常感谢蓝光高清网分享的各种知识和资源,祝蓝光高清网越来越好
回复

使用道具 举报

 
wrangler7 发表于 2020-10-29 08:10:44 | 显示全部楼层
 

( o: w7 s! g) P! x$ C非常感谢蓝光高清网给大家的享乐4k,祝蓝光高清网越办越好!
回复

使用道具 举报

 
侠客 发表于 2020-10-30 14:05:35 | 显示全部楼层
 
老大辛苦了
回复

使用道具 举报

 
侠客 发表于 2020-11-1 17:47:04 | 显示全部楼层
 
老大辛苦了
回复

使用道具 举报

 
您需要登录后才可以回帖 登录 | 立即注册

本版积分规则

0关注

1粉丝

91145帖子

  • 版块推荐
  • 百宝箱

电影推荐

更多+

热门电影

更多+

关注我们:微信服务号

官方微信

手机版

蓝光高清网

专注4k电影、4k视频、VR视频、高清电影、蓝光原盘资源

本站内容部分由用户自主分享和转载自互联网,转载目的在于传递更多信息,并不代表本网赞同其观点和对其真实性负责。

如有侵权、违反国家法律政策行为,请联系我们,我们会第一时间及时清除和处理!

举报反馈邮箱:lanniao@1080pro.net

Copyright   ©2019-2020  蓝光高清网    |网站地图