开通会员
全站资源畅享下载
4k原盘抢先下载
免高清币下载
会员用户组特权
开通会员
上传
收藏
首页
开启左侧

[惊悚] 魔鬼同意令 The.Assent.2019.1080p.BluRay.x264.DTS-HD.MA.5.1-FGT 8.27GB

[复制链接]
蓝鸟 发表于 2020-10-27 12:08:55 | 显示全部楼层 |阅读模式 打印 上一主题 下一主题
 

加入蓝光高清网,轻松下载最新4k资源

您需要 登录 才可以下载或查看,没有帐号?立即注册

x

魔鬼同意令 The.Assent.2019.1080p.BluRay.x264.DTS-HD.MA.5.1-FGT 8.27GB

魔鬼同意令 The.Assent.2019.1080p.BluRay.x264.DTS-HD.MA.5.1-FGT 8.27GB



译  名 魔鬼同意令
片  名 The Assent
年  代 2019
产  地 美国
类  别 惊悚 / 恐怖
语  言 英语
上映日期 2019-10(多伦多暗黑影展)
IMDb评分  4.0/10 from 1034 users
IMDb链接  https://www.imdb.com/title/tt9612982
豆瓣评分 4.3/10 from 215 users
豆瓣链接 https://movie.douban.com/subject/34834941/
导  演 皮尔瑞·雷金纳德·迪奥 Pearry Reginald Teo
编  剧 皮尔瑞·雷金纳德·迪奥 Pearry Reginald Teo
主  演 罗伯特·卡辛斯基 Robert Kazinsky
       皮特·杰森 Peter Jason
       弗罗伦丝·费佛瑞 Florence Faivre
       道格拉斯·斯派恩 Douglas Spain
       艾琳·迪茨 Eileen Dietz
       Margarita Reyes
       William "Will" Daubert
       莱斯·佩德罗索 Lais Pedroso


标  签 恐怖 | 驱魔 | 美国 | 惊悚 | 灵异 | 2019 | 诡异 | 美国电影

简  介  

  After a series of disturbing supernatural events in his home, Joel, a young molikan.com single father, comes to suspect that his young son may be possessed.

  谷歌为您翻译:
  年轻的molikan.com单身父亲乔尔(Joel)在家里发生了一系列令人不安的超自然事件后,开始怀疑自己的小儿子可能被管有。

  腾讯为您翻译:
  在家里发生了一系列令人不安的超自然事件后,年轻的molikan.com单身父亲乔尔开始怀疑他年幼的儿子可能被附身了。

  本站为您翻译:
  在家里发生了一系列令人不安的超自然事件之后,年轻的 molikan 网站的单身父亲 Joel 开始怀疑他的小儿子可能被附身了。




该资源信息参数
  • Video
  • ID                                       : 1
  • Format                                   : AVC
  • Format/Info                              : Advanced Video Codec
  • Format profile                           : High@L4.1
  • Format settings                          : CABAC / 4 Ref Frames
  • Format settings, CABAC                   : Yes
  • Format settings, Reference frames        : 4 frames
  • Codec ID                                 : V_MPEG4/ISO/AVC
  • Duration                                 : 1 h 27 min
  • Bit rate                                 : 11.5 Mb/s
  • Width                                    : 1 920 pixels
  • Height                                   : 816 pixels
  • Display aspect ratio                     : 2.35:1
  • Frame rate mode                          : Constant
  • Frame rate                               : 23.976 (24000/1001/45378) FPS
  • Color space                              : YUV
  • Chroma subsampling                       : 4:2:0
  • Bit depth                                : 8 bits
  • Scan type                                : Progressive
  • Bits/(Pixel*Frame)                       : 0.306
  • Stream size                              : 7.05 GiB (85%)
  • Title                                    : The.Assent.2019.1080p.BluRay.x264.DTS-HD.MA.5.1-FGT
  • Writing library                          : x264 core 148 r2795M aaa9aa8
  • Encoding settings                        : cabac=1 / ref=4 / deblock=1:-2:-2 / analyse=0x3:0x113 / me=umh / subme=9 / psy=1 / psy_rd=1.00:0.15 / mixed_ref=1 / me_range=16 / chroma_me=1 / trellis=2 / 8x8dct=1 / cqm=0 / deadzone=21,11 / fast_pskip=1 / chroma_qp_offset=-3 / threads=72 / lookahead_threads=3 / sliced_threads=0 / nr=0 / decimate=1 / interlaced=0 / bluray_compat=0 / constrained_intra=0 / bframes=3 / b_pyramid=2 / b_adapt=1 / b_bias=0 / direct=3 / weightb=1 / open_gop=0 / weightp=2 / keyint=250 / keyint_min=25 / scenecut=40 / intra_refresh=0 / rc_lookahead=50 / rc=2pass / mbtree=1 / bitrate=11500 / ratetol=1.0 / qcomp=0.60 / qpmin=0 / qpmax=69 / qpstep=4 / cplxblur=20.0 / qblur=0.5 / vbv_maxrate=31250 / vbv_bufsize=31250 / nal_hrd=none / filler=0 / ip_ratio=1.40 / aq=1:1.00
  • Language                                 : English
  • Default                                  : Yes
  • Forced                                   : No
  • Audio
  • ID                                       : 2
  • ID in the original source medium         : 4353 (0x1101)
  • Format                                   : DTS XLL
  • Format/Info                              : Digital Theater Systems
  • Commercial name                          : DTS-HD Master Audio
  • Codec ID                                 : A_DTS
  • Duration                                 : 1 h 27 min
  • Bit rate mode                            : Variable
  • Bit rate                                 : 1 995 kb/s
  • Channel(s)                               : 6 channels
  • Channel layout                           : C L R Ls Rs LFE
  • Sampling rate                            : 48.0 kHz
  • Frame rate                               : 93.750 FPS (512 SPF)
  • Bit depth                                : 16 bits
  • Compression mode                         : Lossless
  • Stream size                              : 1.22 GiB (15%)
  • Title                                    : The.Assent.2019.1080p.BluRay.x264.DTS-HD.MA.5.1-FGT
  • Language                                 : English
  • Default                                  : Yes
  • Forced                                   : No
  • Original source medium                   : Blu-ray
  • Text #1
  • ID                                       : 3
  • Format                                   : UTF-8
  • Codec ID                                 : S_TEXT/UTF8
  • Codec ID/Info                            : UTF-8 Plain Text
  • Duration                                 : 5 s 461 ms
  • Bit rate                                 : 21 b/s
  • Count of elements                        : 1
  • Stream size                              : 15.0 Bytes (0%)
  • Title                                    : FORCED
  • Language                                 : English
  • Default                                  : Yes
  • Forced                                   : Yes
  • Text #2
  • ID                                       : 4
  • Format                                   : UTF-8
  • Codec ID                                 : S_TEXT/UTF8
  • Codec ID/Info                            : UTF-8 Plain Text
  • Duration                                 : 1 h 20 min
  • Bit rate                                 : 53 b/s
  • Count of elements                        : 920
  • Stream size                              : 31.4 KiB (0%)
  • Language                                 : English
  • Default                                  : No
  • Forced                                   : No
  • Menu
  • 00:00:00.000                             : de:Chapter 01
  • 00:10:58.866                             : de:Chapter 02
  • 00:22:28.930                             : de:Chapter 03
  • 00:33:39.892                             : de:Chapter 04
  • 00:41:40.539                             : de:Chapter 05
  • 00:55:16.771                             : de:Chapter 06
  • 01:05:17.830                             : de:Chapter 07
  • 01:19:44.696                             : de:Chapter 08

复制代码


魔鬼同意令 The.Assent.2019.1080p.BluRay.x264.DTS-HD.MA.5.1-FGT 8.27GB

魔鬼同意令 The.Assent.2019.1080p.BluRay.x264.DTS-HD.MA.5.1-FGT 8.27GB



魔鬼同意令 The.Assent.2019.1080p.BluRay.x264.DTS-HD.MA.5.1-FGT 8.27GB

魔鬼同意令 The.Assent.2019.1080p.BluRay.x264.DTS-HD.MA.5.1-FGT 8.27GB



魔鬼同意令 The.Assent.2019.1080p.BluRay.x264.DTS-HD.MA.5.1-FGT 8.27GB

魔鬼同意令 The.Assent.2019.1080p.BluRay.x264.DTS-HD.MA.5.1-FGT 8.27GB



蓝光高清网提示您  点击下方附件名称  马上开始下载

魔鬼同意令 The.Assent.2019.1080p.BluRay.x264.DTS-HD.MA.5.1-FGT 8.27GB
The.Assent.2019.1080p.BluRay.x264.DTS-HD.MA.5.1-FGT.torrent (41.89 KB, 下载次数: 0)
加入蓝光高清网VIP会员  无限制下载本站所有资源---点这里

资源下载、资源播放、字幕使用、无法下载等常见问题---点这里
回复

使用道具 举报

 
您需要登录后才可以回帖 登录 | 立即注册

本版积分规则

0关注

1粉丝

91145帖子

  • 版块推荐
  • 百宝箱

电影推荐

更多+

热门电影

更多+

关注我们:微信服务号

官方微信

手机版

蓝光高清网

专注4k电影、4k视频、VR视频、高清电影、蓝光原盘资源

本站内容部分由用户自主分享和转载自互联网,转载目的在于传递更多信息,并不代表本网赞同其观点和对其真实性负责。

如有侵权、违反国家法律政策行为,请联系我们,我们会第一时间及时清除和处理!

举报反馈邮箱:lanniao@1080pro.net

Copyright   ©2019-2020  蓝光高清网    |网站地图