开通会员
全站资源畅享下载
4k原盘抢先下载
免高清币下载
会员用户组特权
开通会员
上传
收藏
首页
开启左侧

[喜剧] 错误指控/绝命错杀令 Wrongfully.Accused.1998.1080p.BluRay.x264.DD5.1-HANDJOB 6.54GB

[复制链接]
蓝鸟 发表于 2020-10-27 12:10:12 | 显示全部楼层 |阅读模式 打印 上一主题 下一主题
 

加入蓝光高清网,轻松下载最新4k资源

您需要 登录 才可以下载或查看,没有帐号?立即注册

x

错误指控/绝命错杀令 Wrongfully.Accused.1998.1080p.BluRay.x264.DD5.1-HANDJOB 6.54GB

错误指控/绝命错杀令 Wrongfully.Accused.1998.1080p.BluRay.x264.DD5.1-HANDJOB 6.54GB



译  名 错误指控 / 绝命错杀令(台)
片  名 Wrongfully Accused
年  代 1998
产  地 德国 / 美国
类  别 喜剧 / 动作 / 惊悚
语  言 英语
上映日期 1998-07-23
IMDb评分  6.2/10 from 22797 users
IMDb链接  https://www.imdb.com/title/tt0120901
豆瓣评分 7.0/10 from 1109 users
豆瓣链接 https://movie.douban.com/subject/1292674/
片  长 87 分钟
导  演 Pat Proft
编  剧 Pat Proft
主  演 莱斯利·尼尔森 Leslie Nielsen


标  签 喜剧 | 美国 | 恶搞 | 搞笑 | 美国电影 | 1998 | 莱斯利·尼尔森/Leslie_Nielsen | 无厘头

简  介  

  一次演奏会上,小提琴家瑞安(莱斯利?尼尔森 Leslie Nielsen 饰)邂逅了美艳妇人劳伦(凯丽?勒布克 Kelly LeBrock 饰),劳伦对他大抛媚眼,吓得瑞安不知所措。联合国秘书长罗伯特将到哥伦比亚作反恐演讲,劳伦的丈夫希宾负责安排一切。这天瑞安收到了劳伦的邀请,并注明如果他不前来她将自杀。揣揣不安的瑞安如约来到了劳伦的别墅,却发现希宾早已倒地身亡。突然,一名独眼独臂独腿的男人出现将瑞安击晕了。
  当瑞安醒来后,他已被警察抓了起来,荒谬的是,瑞安谋杀希宾的罪名成立了。尽管他一再分辩,但他还是被押往监狱。途中囚车意外翻下了山崖,大难不死的瑞安开始了亡命天涯,他一方面要逃避追捕,一方面要设法找证据还自己一个清白!



该资源信息参数
  • Video
  • ID                                       : 1
  • Format                                   : AVC
  • Format/Info                              : Advanced Video Codec
  • Format profile                           : High@L4.1
  • Format settings                          : CABAC / 4 Ref Frames
  • Format settings, CABAC                   : Yes
  • Format settings, Reference frames        : 4 frames
  • Codec ID                                 : V_MPEG4/ISO/AVC
  • Duration                                 : 1 h 25 min
  • Bit rate                                 : 10.5 Mb/s
  • Width                                    : 1 916 pixels
  • Height                                   : 1 080 pixels
  • Display aspect ratio                     : 16:9
  • Frame rate mode                          : Constant
  • Frame rate                               : 23.976 (24000/1001/45378) FPS
  • Color space                              : YUV
  • Chroma subsampling                       : 4:2:0
  • Bit depth                                : 8 bits
  • Scan type                                : Progressive
  • Bits/(Pixel*Frame)                       : 0.212
  • Stream size                              : 6.31 GiB (96%)
  • Writing library                          : x264 core 157 r2935 545de2f
  • Encoding settings                        : cabac=1 / ref=4 / deblock=1:-3:-3 / analyse=0x3:0x133 / me=umh / subme=10 / psy=1 / psy_rd=1.00:0.00 / mixed_ref=1 / me_range=32 / chroma_me=1 / trellis=2 / 8x8dct=1 / cqm=0 / deadzone=21,11 / fast_pskip=0 / chroma_qp_offset=-2 / threads=24 / lookahead_threads=6 / sliced_threads=0 / nr=0 / decimate=0 / interlaced=0 / bluray_compat=0 / constrained_intra=0 / bframes=16 / b_pyramid=2 / b_adapt=2 / b_bias=0 / direct=3 / weightb=1 / open_gop=0 / weightp=2 / keyint=240 / keyint_min=24 / scenecut=40 / intra_refresh=0 / rc_lookahead=60 / rc=crf / mbtree=0 / crf=19.2 / qcomp=0.60 / qpmin=0 / qpmax=69 / qpstep=4 / vbv_maxrate=62500 / vbv_bufsize=78125 / crf_max=0.0 / nal_hrd=none / filler=0 / ip_ratio=1.40 / pb_ratio=1.30 / aq=2:1.00
  • Language                                 : English
  • Default                                  : Yes
  • Forced                                   : No
  • Color range                              : Limited
  • Color primaries                          : BT.709
  • Transfer characteristics                 : BT.709
  • Matrix coefficients                      : BT.709
  • Audio
  • ID                                       : 2
  • Format                                   : AC-3
  • Format/Info                              : Audio Coding 3
  • Commercial name                          : Dolby Digital
  • Codec ID                                 : A_AC3
  • Duration                                 : 1 h 25 min
  • Bit rate mode                            : Constant
  • Bit rate                                 : 384 kb/s
  • Channel(s)                               : 6 channels
  • Channel layout                           : L R C LFE Ls Rs
  • Sampling rate                            : 48.0 kHz
  • Frame rate                               : 31.250 FPS (1536 SPF)
  • Compression mode                         : Lossy
  • Stream size                              : 236 MiB (4%)
  • Language                                 : English
  • Service kind                             : Complete Main
  • Default                                  : Yes
  • Forced                                   : No
  • Text
  • ID                                       : 3
  • Format                                   : UTF-8
  • Codec ID                                 : S_TEXT/UTF8
  • Codec ID/Info                            : UTF-8 Plain Text
  • Duration                                 : 1 h 18 min
  • Bit rate                                 : 54 b/s
  • Count of elements                        : 1222
  • Stream size                              : 31.2 KiB (0%)
  • Title                                    : Hard of Hearing
  • Language                                 : English
  • Default                                  : No
  • Forced                                   : No
  • Menu
  • 00:00:00.000                             : :Chapter 1
  • 00:09:48.505                             : :Chapter 2
  • 00:18:29.233                             : :Chapter 3
  • 00:30:02.718                             : :Chapter 4
  • 00:43:35.279                             : :Chapter 5
  • 00:55:04.927                             : :Chapter 6
  • 01:04:37.957                             : :Chapter 7
  • 01:19:59.586                             : :Chapter 8

复制代码


错误指控/绝命错杀令 Wrongfully.Accused.1998.1080p.BluRay.x264.DD5.1-HANDJOB 6.54GB

错误指控/绝命错杀令 Wrongfully.Accused.1998.1080p.BluRay.x264.DD5.1-HANDJOB 6.54GB



错误指控/绝命错杀令 Wrongfully.Accused.1998.1080p.BluRay.x264.DD5.1-HANDJOB 6.54GB

错误指控/绝命错杀令 Wrongfully.Accused.1998.1080p.BluRay.x264.DD5.1-HANDJOB 6.54GB



错误指控/绝命错杀令 Wrongfully.Accused.1998.1080p.BluRay.x264.DD5.1-HANDJOB 6.54GB

错误指控/绝命错杀令 Wrongfully.Accused.1998.1080p.BluRay.x264.DD5.1-HANDJOB 6.54GB



蓝光高清网提示您  点击下方附件名称  马上开始下载

错误指控/绝命错杀令 Wrongfully.Accused.1998.1080p.BluRay.x264.DD5.1-HANDJOB 6.54GB
Wrongfully.Accused.1998.1080p.BluRay.x264.DD5.1-HANDJOB.torrent (33.23 KB, 下载次数: 2)
加入蓝光高清网VIP会员  无限制下载本站所有资源---点这里

资源下载、资源播放、字幕使用、无法下载等常见问题---点这里
回复

使用道具 举报

 
您需要登录后才可以回帖 登录 | 立即注册

本版积分规则

0关注

1粉丝

91145帖子

  • 版块推荐
  • 百宝箱

电影推荐

更多+

热门电影

更多+

关注我们:微信服务号

官方微信

手机版

蓝光高清网

专注4k电影、4k视频、VR视频、高清电影、蓝光原盘资源

本站内容部分由用户自主分享和转载自互联网,转载目的在于传递更多信息,并不代表本网赞同其观点和对其真实性负责。

如有侵权、违反国家法律政策行为,请联系我们,我们会第一时间及时清除和处理!

举报反馈邮箱:lanniao@1080pro.net

Copyright   ©2019-2020  蓝光高清网    |网站地图