开通会员
全站资源畅享下载
4k原盘抢先下载
免高清币下载
会员用户组特权
开通会员
上传
收藏
首页
开启左侧

[其它] 每个人的每件事 Everybodys.Everything.2019.1080p.BluRay.x264-DEV0 12.21GB

[复制链接]
蓝鸟 发表于 2020-10-27 12:12:40 | 显示全部楼层 |阅读模式 打印 上一主题 下一主题
 

加入蓝光高清网,轻松下载最新4k资源

您需要 登录 才可以下载或查看,没有帐号?立即注册

x

每个人的每件事 Everybodys.Everything.2019.1080p.BluRay.x264-DEV0 12.21GB

每个人的每件事 Everybodys.Everything.2019.1080p.BluRay.x264-DEV0 12.21GB



译  名 每个人的每件事
片  名 Everybody"s Everything
年  代 2019
产  地 美国
类  别 纪录片
语  言 英语
上映日期 2019-03-09(美国)
IMDb评分  7.5/10 from 2047 users
IMDb链接  https://www.imdb.com/title/tt9617716
豆瓣评分 9.2/10 from 217 users
豆瓣链接 https://movie.douban.com/subject/33218408/
片  长 116分钟
导  演 Sebastian Jones / Ramez Silyan
主  演 Lil Peep


标  签 lilpeep | 纪录片 | 情绪说唱歌手 | emo | 我想你了 | Peep | gus | 音乐

简  介  

  A look at the life of genre blending artist and style icon, Lil Peep.

  谷歌为您翻译:
  看看风格融合艺术家和风格偶像Lil Peep的生活。

  腾讯为您翻译:
  看看融合了艺术家和时尚偶像的类型的生活,莉尔·皮普(Lil Peep)。

  本站为您翻译:
  一个流派混合艺术家和风格图标的生活,Lil Peep。




该资源信息参数
  • Video
  • ID                                       : 1
  • Format                                   : AVC
  • Format/Info                              : Advanced Video Codec
  • Format profile                           : High@L4.1
  • Format settings                          : CABAC / 4 Ref Frames
  • Format settings, CABAC                   : Yes
  • Format settings, Reference frames        : 4 frames
  • Codec ID                                 : V_MPEG4/ISO/AVC
  • Duration                                 : 1 h 55 min
  • Bit rate                                 : 11.0 Mb/s
  • Width                                    : 1 920 pixels
  • Height                                   : 1 080 pixels
  • Display aspect ratio                     : 16:9
  • Frame rate mode                          : Constant
  • Frame rate                               : 23.976 (24000/1001/45378) FPS
  • Color space                              : YUV
  • Chroma subsampling                       : 4:2:0
  • Bit depth                                : 8 bits
  • Scan type                                : Progressive
  • Bits/(Pixel*Frame)                       : 0.222
  • Stream size                              : 8.92 GiB (73%)
  • Writing library                          : x264 core 161 r3018 db0d417
  • Encoding settings                        : cabac=1 / ref=4 / deblock=1:-3:-3 / analyse=0x3:0x133 / me=umh / subme=10 / psy=1 / psy_rd=1.00:0.15 / mixed_ref=1 / me_range=24 / chroma_me=1 / trellis=2 / 8x8dct=1 / cqm=0 / deadzone=21,11 / fast_pskip=1 / chroma_qp_offset=-3 / threads=18 / lookahead_threads=3 / sliced_threads=0 / nr=0 / decimate=1 / interlaced=0 / bluray_compat=0 / constrained_intra=0 / bframes=8 / b_pyramid=2 / b_adapt=2 / b_bias=0 / direct=3 / weightb=1 / open_gop=0 / weightp=2 / keyint=250 / keyint_min=23 / scenecut=40 / intra_refresh=0 / rc_lookahead=60 / rc=crf / mbtree=1 / crf=18.0 / qcomp=0.60 / qpmin=0 / qpmax=69 / qpstep=4 / ip_ratio=1.40 / aq=3:0.60
  • Language                                 : English
  • Default                                  : Yes
  • Forced                                   : No
  • Color range                              : Limited
  • Matrix coefficients                      : BT.709
  • Audio #1
  • ID                                       : 2
  • Format                                   : DTS XLL
  • Format/Info                              : Digital Theater Systems
  • Commercial name                          : DTS-HD Master Audio
  • Codec ID                                 : A_DTS
  • Duration                                 : 1 h 55 min
  • Bit rate mode                            : Variable
  • Bit rate                                 : 3 714 kb/s
  • Channel(s)                               : 6 channels
  • Channel layout                           : C L R Ls Rs LFE
  • Sampling rate                            : 48.0 kHz
  • Frame rate                               : 93.750 FPS (512 SPF)
  • Bit depth                                : 24 bits
  • Compression mode                         : Lossless
  • Stream size                              : 3.01 GiB (25%)
  • Language                                 : English
  • Default                                  : Yes
  • Forced                                   : No
  • Audio #2
  • ID                                       : 3
  • Format                                   : AAC LC
  • Format/Info                              : Advanced Audio Codec Low Complexity
  • Codec ID                                 : A_AAC-2
  • Duration                                 : 1 h 55 min
  • Bit rate                                 : 92.5 kb/s
  • Channel(s)                               : 2 channels
  • Channel layout                           : L R
  • Sampling rate                            : 48.0 kHz
  • Frame rate                               : 46.875 FPS (1024 SPF)
  • Compression mode                         : Lossy
  • Delay relative to video                  : 9 ms
  • Stream size                              : 76.7 MiB (1%)
  • Title                                    : English Commentary by Sebastian Jones and Ramez Silyan
  • Language                                 : English
  • Default                                  : No
  • Forced                                   : No
  • Text #1
  • ID                                       : 4
  • Format                                   : UTF-8
  • Codec ID                                 : S_TEXT/UTF8
  • Codec ID/Info                            : UTF-8 Plain Text
  • Duration                                 : 1 h 53 min
  • Bit rate                                 : 98 b/s
  • Count of elements                        : 2177
  • Stream size                              : 81.5 KiB (0%)
  • Title                                    : English
  • Language                                 : English
  • Default                                  : No
  • Forced                                   : No
  • Text #2
  • ID                                       : 5
  • Format                                   : UTF-8
  • Codec ID                                 : S_TEXT/UTF8
  • Codec ID/Info                            : UTF-8 Plain Text
  • Duration                                 : 1 h 55 min
  • Bit rate                                 : 98 b/s
  • Count of elements                        : 2263
  • Stream size                              : 83.7 KiB (0%)
  • Title                                    : English SDH
  • Language                                 : English
  • Default                                  : No
  • Forced                                   : No
  • Text #3
  • ID                                       : 6
  • Format                                   : PGS
  • Muxing mode                              : zlib
  • Codec ID                                 : S_HDMV/PGS
  • Codec ID/Info                            : Picture based subtitle format used on BDs/HD-DVDs
  • Duration                                 : 1 h 55 min
  • Bit rate                                 : 21.2 kb/s
  • Count of elements                        : 4550
  • Stream size                              : 17.5 MiB (0%)
  • Title                                    : English SDH
  • Language                                 : English
  • Default                                  : No
  • Forced                                   : No
  • Text #4
  • ID                                       : 7
  • Format                                   : UTF-8
  • Codec ID                                 : S_TEXT/UTF8
  • Codec ID/Info                            : UTF-8 Plain Text
  • Duration                                 : 1 h 50 min
  • Bit rate                                 : 89 b/s
  • Count of elements                        : 1776
  • Stream size                              : 72.7 KiB (0%)
  • Title                                    : German
  • Language                                 : German
  • Default                                  : No
  • Forced                                   : No
  • Text #5
  • ID                                       : 8
  • Format                                   : PGS
  • Muxing mode                              : zlib
  • Codec ID                                 : S_HDMV/PGS
  • Codec ID/Info                            : Picture based subtitle format used on BDs/HD-DVDs
  • Duration                                 : 1 h 50 min
  • Bit rate                                 : 19.1 kb/s
  • Count of elements                        : 3558
  • Stream size                              : 15.1 MiB (0%)
  • Title                                    : German
  • Language                                 : German
  • Default                                  : No
  • Forced                                   : No
  • Text #6
  • ID                                       : 9
  • Format                                   : PGS
  • Muxing mode                              : zlib
  • Codec ID                                 : S_HDMV/PGS
  • Codec ID/Info                            : Picture based subtitle format used on BDs/HD-DVDs
  • Duration                                 : 1 h 50 min
  • Bit rate                                 : 16.7 kb/s
  • Count of elements                        : 3576
  • Stream size                              : 13.2 MiB (0%)
  • Title                                    : Czech
  • Language                                 : Czech
  • Default                                  : No
  • Forced                                   : No
  • Text #7
  • ID                                       : 10
  • Format                                   : PGS
  • Muxing mode                              : zlib
  • Codec ID                                 : S_HDMV/PGS
  • Codec ID/Info                            : Picture based subtitle format used on BDs/HD-DVDs
  • Duration                                 : 1 h 50 min
  • Bit rate                                 : 16.9 kb/s
  • Count of elements                        : 3514
  • Stream size                              : 13.4 MiB (0%)
  • Title                                    : Dutch
  • Language                                 : Dutch
  • Default                                  : No
  • Forced                                   : No
  • Text #8
  • ID                                       : 11
  • Format                                   : PGS
  • Muxing mode                              : zlib
  • Codec ID                                 : S_HDMV/PGS
  • Codec ID/Info                            : Picture based subtitle format used on BDs/HD-DVDs
  • Duration                                 : 1 h 50 min
  • Bit rate                                 : 20.0 kb/s
  • Count of elements                        : 3576
  • Stream size                              : 15.8 MiB (0%)
  • Title                                    : French
  • Language                                 : French
  • Default                                  : No
  • Forced                                   : No
  • Text #9
  • ID                                       : 12
  • Format                                   : PGS
  • Muxing mode                              : zlib
  • Codec ID                                 : S_HDMV/PGS
  • Codec ID/Info                            : Picture based subtitle format used on BDs/HD-DVDs
  • Duration                                 : 1 h 50 min
  • Bit rate                                 : 19.1 kb/s
  • Count of elements                        : 3566
  • Stream size                              : 15.2 MiB (0%)
  • Title                                    : Hungarian
  • Language                                 : Hungarian
  • Default                                  : No
  • Forced                                   : No
  • Text #10
  • ID                                       : 13
  • Format                                   : PGS
  • Muxing mode                              : zlib
  • Codec ID                                 : S_HDMV/PGS
  • Codec ID/Info                            : Picture based subtitle format used on BDs/HD-DVDs
  • Duration                                 : 1 h 50 min
  • Bit rate                                 : 17.7 kb/s
  • Count of elements                        : 3530
  • Stream size                              : 14.1 MiB (0%)
  • Title                                    : Polish
  • Language                                 : Polish
  • Default                                  : No
  • Forced                                   : No
  • Text #11
  • ID                                       : 14
  • Format                                   : PGS
  • Muxing mode                              : zlib
  • Codec ID                                 : S_HDMV/PGS
  • Codec ID/Info                            : Picture based subtitle format used on BDs/HD-DVDs
  • Duration                                 : 1 h 50 min
  • Bit rate                                 : 18.8 kb/s
  • Count of elements                        : 3574
  • Stream size                              : 14.9 MiB (0%)
  • Title                                    : Portuguese (Brazilian)
  • Language                                 : Portuguese
  • Default                                  : No
  • Forced                                   : No
  • Text #12
  • ID                                       : 15
  • Format                                   : PGS
  • Muxing mode                              : zlib
  • Codec ID                                 : S_HDMV/PGS
  • Codec ID/Info                            : Picture based subtitle format used on BDs/HD-DVDs
  • Duration                                 : 1 h 50 min
  • Bit rate                                 : 20.8 kb/s
  • Count of elements                        : 3412
  • Stream size                              : 16.5 MiB (0%)
  • Title                                    : Portuguese (European)
  • Language                                 : Portuguese
  • Default                                  : No
  • Forced                                   : No
  • Text #13
  • ID                                       : 16
  • Format                                   : PGS
  • Muxing mode                              : zlib
  • Codec ID                                 : S_HDMV/PGS
  • Codec ID/Info                            : Picture based subtitle format used on BDs/HD-DVDs
  • Duration                                 : 1 h 50 min
  • Bit rate                                 : 15.4 kb/s
  • Count of elements                        : 3192
  • Stream size                              : 12.2 MiB (0%)
  • Title                                    : Romanian
  • Language                                 : Romanian
  • Default                                  : No
  • Forced                                   : No
  • Text #14
  • ID                                       : 17
  • Format                                   : PGS
  • Muxing mode                              : zlib
  • Codec ID                                 : S_HDMV/PGS
  • Codec ID/Info                            : Picture based subtitle format used on BDs/HD-DVDs
  • Duration                                 : 1 h 50 min
  • Bit rate                                 : 16.8 kb/s
  • Count of elements                        : 3562
  • Stream size                              : 13.3 MiB (0%)
  • Title                                    : Slovenian
  • Language                                 : Slovenian
  • Default                                  : No
  • Forced                                   : No
  • Text #15
  • ID                                       : 18
  • Format                                   : PGS
  • Muxing mode                              : zlib
  • Codec ID                                 : S_HDMV/PGS
  • Codec ID/Info                            : Picture based subtitle format used on BDs/HD-DVDs
  • Duration                                 : 1 h 55 min
  • Bit rate                                 : 17.7 kb/s
  • Count of elements                        : 3672
  • Stream size                              : 14.6 MiB (0%)
  • Title                                    : Spanish (Castillan)
  • Language                                 : Spanish
  • Default                                  : No
  • Forced                                   : No
  • Text #16
  • ID                                       : 19
  • Format                                   : PGS
  • Muxing mode                              : zlib
  • Codec ID                                 : S_HDMV/PGS
  • Codec ID/Info                            : Picture based subtitle format used on BDs/HD-DVDs
  • Duration                                 : 1 h 50 min
  • Bit rate                                 : 19.5 kb/s
  • Count of elements                        : 3575
  • Stream size                              : 15.5 MiB (0%)
  • Title                                    : Spanish (Latin)
  • Language                                 : Spanish
  • Default                                  : No
  • Forced                                   : No
  • Text #17
  • ID                                       : 20
  • Format                                   : PGS
  • Muxing mode                              : zlib
  • Codec ID                                 : S_HDMV/PGS
  • Codec ID/Info                            : Picture based subtitle format used on BDs/HD-DVDs
  • Duration                                 : 1 h 50 min
  • Bit rate                                 : 18.3 kb/s
  • Count of elements                        : 3580
  • Stream size                              : 14.5 MiB (0%)
  • Title                                    : Turkish
  • Language                                 : Turkish
  • Default                                  : No
  • Forced                                   : No
  • Menu
  • 00:00:00.000                             : en:00:00:00.000
  • 00:10:01.476                             : en:00:10:01.476
  • 00:20:01.742                             : en:00:20:01.742
  • 00:30:01.967                             : en:00:30:01.967
  • 00:40:02.900                             : en:00:40:02.900
  • 00:50:03.918                             : en:00:50:03.918
  • 01:00:04.100                             : en:01:00:04.100
  • 01:10:04.951                             : en:01:10:04.951
  • 01:20:05.509                             : en:01:20:05.509
  • 01:30:06.109                             : en:01:30:06.109
  • 01:40:06.918                             : en:01:40:06.918
  • 01:50:07.434                             : en:01:50:07.434

复制代码


每个人的每件事 Everybodys.Everything.2019.1080p.BluRay.x264-DEV0 12.21GB

每个人的每件事 Everybodys.Everything.2019.1080p.BluRay.x264-DEV0 12.21GB



蓝光高清网提示您  点击下方附件名称  马上开始下载

每个人的每件事 Everybodys.Everything.2019.1080p.BluRay.x264-DEV0 12.21GB
Everybodys.Everything.2019.1080p.BluRay.x264-DEV0.torrent (61.78 KB, 下载次数: 0)
加入蓝光高清网VIP会员  无限制下载本站所有资源---点这里

资源下载、资源播放、字幕使用、无法下载等常见问题---点这里
回复

使用道具 举报

 

精彩评论1

正序浏览
kingjlc 发表于 2020-10-28 14:32:55 | 显示全部楼层
 
非常感谢蓝光高清网分享的各种知识和资源,祝蓝光高清网越来越好
回复

使用道具 举报

 
您需要登录后才可以回帖 登录 | 立即注册

本版积分规则

0关注

1粉丝

91145帖子

  • 版块推荐
  • 百宝箱

电影推荐

更多+

热门电影

更多+

关注我们:微信服务号

官方微信

手机版

蓝光高清网

专注4k电影、4k视频、VR视频、高清电影、蓝光原盘资源

本站内容部分由用户自主分享和转载自互联网,转载目的在于传递更多信息,并不代表本网赞同其观点和对其真实性负责。

如有侵权、违反国家法律政策行为,请联系我们,我们会第一时间及时清除和处理!

举报反馈邮箱:lanniao@1080pro.net

Copyright   ©2019-2020  蓝光高清网    |网站地图