开通会员
全站资源畅享下载
4k原盘抢先下载
免高清币下载
会员用户组特权
开通会员
上传
收藏
首页
开启左侧

[其它] 舰桥之争 Chaos.on.the.Bridge.2014.1080p.BluRay.x264-NOGRP 4.08GB

[复制链接]
蓝鸟 发表于 2020-10-27 12:13:55 | 显示全部楼层 |阅读模式 打印 上一主题 下一主题
 

加入蓝光高清网,轻松下载最新4k资源

您需要 登录 才可以下载或查看,没有帐号?立即注册

x

舰桥之争 Chaos.on.the.Bridge.2014.1080p.BluRay.x264-NOGRP 4.08GB

舰桥之争 Chaos.on.the.Bridge.2014.1080p.BluRay.x264-NOGRP 4.08GB



译  名 舰桥之争
片  名 Chaos on the Bridge
年  代 2014
产  地 美国
类  别 纪录片
语  言 英语
IMDb评分  7.1/10 from 1096 users
IMDb链接  https://www.imdb.com/title/tt2880448
豆瓣评分 0/10 from 0 users
豆瓣链接 https://movie.douban.com/subject/26982980/
导  演 威廉·夏特纳 William Shatner

标  签 2014 | 美國 | 纪录片 | documentary | WilliamShatner | StarTrek

简  介  

  Canadian acting legend William Shatner takes viewers inside the creation of Star Trek: The Next Generation, the bold attempt in 1986 to recreate the success of the original television series, in which Shatner played Captain James T. Kirk. The documentary, directed, written and presented by Shatner reveals the drama, chaos and controversy behind the scenes as producers tried to make lighting strike twice. Not only were the beloved original characters of Kirk, Spock and McCoy excluded from the new series, the studio also attempted to block the involvement of the creator of the original series - Gene Roddenberry. Few believed it would work including those closest to the production. Yet Star Trek: The Next Generation went on to enormous success lasting seven seasons and spawning the multi-billion dollar Star Trek franchise, which continues to the present day. Now, more than 25 years later, William Shatner brings together the cast, crew and fans of Star Trek: The Next Generation to present...

  谷歌为您翻译:
  加拿大演艺界传奇人物威廉·沙特纳(William Shatner)将观众带入了《星际迷航:下一代》的创作中,这是1986年的大胆尝试,再现了沙特纳饰演詹姆斯·T·柯克上尉的原始电视连续剧的成功。由制片人沙特纳(Shatner)执导,撰写和介绍的纪录片揭示了幕后的戏剧,混乱和争议,因为制片人试图两次打雷。该工作室不仅将Kirk,Spock和McCoy的心爱的原始角色排除在新系列之外,而且还试图阻止原始系列创作者Gene Roddenberry的参与。几乎没有人相信它会起作用,包括那些最接近生产的人。然而《星际迷航:下一代》在过去七个赛季中取得了巨大的成功,并催生了价值数十亿美元的《星际迷航》系列,该系列一直延续到今天。 25年后的今天,威廉·沙特纳(William Shatner)聚集了《星际迷航:下一代》的演员,工作人员和粉丝,向他们展示...

  腾讯为您翻译:
  加拿大演艺界传奇人物威廉·沙特纳(William Shatner)带领观众进入了“星际迷航:下一代”(Star Trek:The Next Generation)的创作过程,这是1986年再现原版电视剧成功的大胆尝试,沙特纳在其中扮演詹姆斯·T·柯克(James T.Kirk)船长。这部纪录片由沙特纳执导、编剧和呈现,揭示了制片人试图让灯光两次罢工时幕后的戏剧性、混乱和争议。不仅柯克、斯波克和麦考伊这三个深受喜爱的原创人物被排除在新电视剧之外,制片厂还试图阻止原版电视剧的创作者吉恩·罗登贝里(Gene Roddenberry)的参与。几乎没有人相信它会奏效,包括那些离生产最近的人。然而,“星际迷航:下一代”在七季中取得了巨大成功,并催生了价值数十亿美元的“星际迷航”系列,这一系列电影一直延续至今。现在,25年多过去了,威廉·沙特纳将“星际迷航:下一代”的演员、剧组和影迷聚集在一起……

  本站为您翻译:
  加拿大的表演传奇人物 William Shatner 带领观众进入《星际迷航: 下一代》的创作过程,1986年这部大胆的电视剧试图重现最初电视剧的成功,夏特纳在其中扮演了詹姆斯·T·柯克。这部由 Shatner 导演、编剧和呈现的纪录片揭示了幕后的戏剧性、混乱和争议,因为制片人试图让灯光再次闪烁。不仅柯克、斯波克和麦考伊这些深受喜爱的原始角色被排除在新剧之外,制片厂还试图阻止原剧《吉恩·罗登伯里创作者的参与。几乎没有人相信这种方法会奏效,包括那些离生产地点最近的地方。然而,《星际迷航: 下一代》却取得了持续七季的巨大成功,催生了数十亿美元的《星际迷航》系列,并延续至今。现在,超过25年过去了,威廉夏特纳汇集了演员,工作人员和球迷的星际旅行: 下一代呈现..。




该资源信息参数
  • Video
  • ID                                       : 1
  • Format                                   : AVC
  • Format/Info                              : Advanced Video Codec
  • Format profile                           : High@L4.1
  • Format settings                          : CABAC / 4 Ref Frames
  • Format settings, CABAC                   : Yes
  • Format settings, Reference frames        : 4 frames
  • Codec ID                                 : V_MPEG4/ISO/AVC
  • Duration                                 : 59 min 14 s
  • Bit rate mode                            : Variable
  • Bit rate                                 : 9 084 kb/s
  • Maximum bit rate                         : 40.0 Mb/s
  • Width                                    : 1 920 pixels
  • Height                                   : 1 080 pixels
  • Display aspect ratio                     : 16:9
  • Frame rate mode                          : Constant
  • Frame rate                               : 23.976 (24000/1001/45378) FPS
  • Standard                                 : Component
  • Color space                              : YUV
  • Chroma subsampling                       : 4:2:0
  • Bit depth                                : 8 bits
  • Scan type                                : Progressive
  • Bits/(Pixel*Frame)                       : 0.183
  • Stream size                              : 3.76 GiB (92%)
  • Writing library                          : x264 core 155
  • Encoding settings                        : cabac=1 / ref=4 / deblock=1:-3:-3 / analyse=0x3:0x133 / me=umh / subme=10 / psy=1 / psy_rd=1.00:0.00 / mixed_ref=1 / me_range=32 / chroma_me=1 / trellis=2 / 8x8dct=1 / cqm=1 / deadzone=21,11 / fast_pskip=0 / chroma_qp_offset=-2 / threads=12 / lookahead_threads=2 / sliced_threads=0 / slices=4 / nr=0 / decimate=1 / interlaced=0 / minigop=1 / stitchable=1 / constrained_intra=0 / bframes=9 / b_pyramid=0 / b_adapt=2 / b_bias=0 / direct=3 / weightb=1 / open_gop=1 / weightp=0 / keyint=250 / keyint_min=1 / scenecut=40 / intra_refresh=0 / rc_lookahead=60 / rc=crf / mbtree=0 / crf=20.0 / qcomp=0.60 / qpmin=3 / qpmax=69 / qpstep=4 / vbv_maxrate=40000 / vbv_bufsize=40000 / crf_max=51.0 / nal_hrd=vbr / filler=0 / ip_ratio=1.40 / pb_ratio=1.30 / aq=3:0.80
  • Language                                 : English
  • Default                                  : Yes
  • Forced                                   : No
  • Color range                              : Limited
  • Color primaries                          : BT.709
  • Transfer characteristics                 : BT.709
  • Matrix coefficients                      : BT.709
  • Audio
  • ID                                       : 2
  • ID in the original source medium         : 4352 (0x1100)
  • Format                                   : E-AC-3
  • Format/Info                              : Enhanced AC-3
  • Commercial name                          : Dolby Digital Plus
  • Codec ID                                 : A_EAC3
  • Duration                                 : 59 min 15 s
  • Bit rate mode                            : Constant
  • Bit rate                                 : 768 kb/s
  • Channel(s)                               : 6 channels
  • Channel layout                           : L R C LFE Ls Rs
  • Sampling rate                            : 48.0 kHz
  • Frame rate                               : 31.250 FPS (1536 SPF)
  • Compression mode                         : Lossy
  • Stream size                              : 325 MiB (8%)
  • Title                                    : Surround 5.1
  • Writing library                          : Lavc58.91.100 eac3
  • Language                                 : English
  • Service kind                             : Complete Main
  • Default                                  : Yes
  • Forced                                   : No
  • Original source medium                   : Blu-ray
  • Text #1
  • ID                                       : 3
  • Format                                   : UTF-8
  • Codec ID                                 : S_TEXT/UTF8
  • Codec ID/Info                            : UTF-8 Plain Text
  • Duration                                 : 58 min 58 s
  • Bit rate                                 : 112 b/s
  • Count of elements                        : 1298
  • Stream size                              : 48.8 KiB (0%)
  • Language                                 : English
  • Default                                  : No
  • Forced                                   : No
  • Text #2
  • ID                                       : 4
  • Format                                   : UTF-8
  • Codec ID                                 : S_TEXT/UTF8
  • Codec ID/Info                            : UTF-8 Plain Text
  • Duration                                 : 59 min 1 s
  • Bit rate                                 : 116 b/s
  • Count of elements                        : 1373
  • Stream size                              : 50.3 KiB (0%)
  • Title                                    : SDH
  • Language                                 : English
  • Default                                  : No
  • Forced                                   : No
  • Menu
  • 00:00:00.000                             : :Chapter 01
  • 00:01:27.462                             : :Chapter 02
  • 00:07:59.979                             : :Chapter 03
  • 00:23:46.466                             : :Chapter 04
  • 00:31:34.934                             : :Chapter 05
  • 00:36:27.268                             : :Chapter 06
  • 00:41:02.668                             : :Chapter 07
  • 00:46:09.057                             : :Chapter 08
  • 00:55:03.675                             : :Chapter 09

复制代码


舰桥之争 Chaos.on.the.Bridge.2014.1080p.BluRay.x264-NOGRP 4.08GB

舰桥之争 Chaos.on.the.Bridge.2014.1080p.BluRay.x264-NOGRP 4.08GB



舰桥之争 Chaos.on.the.Bridge.2014.1080p.BluRay.x264-NOGRP 4.08GB

舰桥之争 Chaos.on.the.Bridge.2014.1080p.BluRay.x264-NOGRP 4.08GB



舰桥之争 Chaos.on.the.Bridge.2014.1080p.BluRay.x264-NOGRP 4.08GB

舰桥之争 Chaos.on.the.Bridge.2014.1080p.BluRay.x264-NOGRP 4.08GB



蓝光高清网提示您  点击下方附件名称  马上开始下载

舰桥之争 Chaos.on.the.Bridge.2014.1080p.BluRay.x264-NOGRP 4.08GB
Chaos.on.the.Bridge.2014.1080p.BluRay.x264-NOGRP.torrent (41.3 KB, 下载次数: 0)
加入蓝光高清网VIP会员  无限制下载本站所有资源---点这里

资源下载、资源播放、字幕使用、无法下载等常见问题---点这里
回复

使用道具 举报

 

精彩评论1

正序浏览
kingjlc 发表于 2020-10-28 14:25:27 | 显示全部楼层
 

非常感谢蓝光高清网给大家的享乐4k,祝蓝光高清网越办越好!
回复

使用道具 举报

 
您需要登录后才可以回帖 登录 | 立即注册

本版积分规则

0关注

1粉丝

91145帖子

  • 版块推荐
  • 百宝箱

电影推荐

更多+

热门电影

更多+

关注我们:微信服务号

官方微信

手机版

蓝光高清网

专注4k电影、4k视频、VR视频、高清电影、蓝光原盘资源

本站内容部分由用户自主分享和转载自互联网,转载目的在于传递更多信息,并不代表本网赞同其观点和对其真实性负责。

如有侵权、违反国家法律政策行为,请联系我们,我们会第一时间及时清除和处理!

举报反馈邮箱:lanniao@1080pro.net

Copyright   ©2019-2020  蓝光高清网    |网站地图