开通会员
全站资源畅享下载
4k原盘抢先下载
免高清币下载
会员用户组特权
开通会员
上传
收藏
首页
开启左侧

八佰 4k.The.Eight.Hundred.2020.2160p.WEB-DL.4K.HDR.HEVC.DDP5.1--4k电影下载—17.50 GB

[复制链接]
蓝鸟 发表于 2020-11-1 20:57:54 | 显示全部楼层 |阅读模式 打印 上一主题 下一主题

八佰(2020年上映)

主演王千源 / 张译 / 姜武 / 黄志忠 / 张俊一
导演管虎
类型剧情 战争 历史 
地区中国大陆 
片长148分钟
画质4K 原盘
音轨Dolby TrueHD 5.1 
评分豆瓣7.7分
电影【八佰】原盘信息
 

加入蓝光高清网,轻松下载最新4k资源

您需要 登录 才可以下载或查看,没有帐号?立即注册

x
本帖最后由 蓝鸟 于 2020-12-17 20:22 编辑 1 q8 M9 d" z, _/ O( i0 i1 L
! K9 e/ S7 N3 ~$ ~
简      介  O$ U3 Y5 M. W( I* m0 k% R

. s- \1 o- X0 y0 V) {  c+ Z     1937年淞沪会战的最后一役,“八百壮士”奉命坚守上海四行仓库,以少敌多顽强抵抗四天四夜。电影《八佰》由管虎导演,是亚洲首部全片使用IMAX摄影机拍摄的商业电影,将于2020年8月21日全国影院上映。
8 E. s; {% Q+ R8 I' x5 {6 J
# {" ?, Z) q  B, ]& R
2 @9 ^& B, v& ~+ z' v6 f, j
影片参数0 Z5 y3 `4 {9 P- d6 m6 J
八百启示录 / 战争启示录之八百壮士 / The Eight Hundred/八佰4k The Eight Hundred 2020 WEB-DL 4K HDR HEVC DDP5.1-4k电影下载8 V( a( U- ~& o6 G8 t* w
8 _: d, X# `/ F" A3 Z0 R1 t

, b( Q8 R" g& ~" w& z" @General
" O/ U; F7 L' h2 t/ SUnique ID                      : 41505518951813126057809221267476244623 (0x1F39AC14082C14ACD7F6CD0A0DA0E88F)
  j4 `" _: C0 b7 N8 J; lComplete name                  : Z:\电影\Hao4k\八佰4k.The.Eight.Hundred.2020.2160p.WEB-DL.4K.HDR.HEVC.DDP5.1-Hao4KWeb.mkv
+ |1 Q/ y, ^! q4 GFormat                         : Matroska2 l7 n7 T  t- X3 h
Format version                 : Version 4
8 g2 `* P3 F0 W! B! WFile size                      : 17.5 GiB% v5 m) r# Q3 R+ i. I
Duration                       : 2 h 28 min% K6 T1 _& }, m
Overall bit rate               : 16.9 Mb/s/ W* N; C- {" J( j
Encoded date                   : UTC 2020-11-01 03:48:02
/ j" D9 I! \/ ZWriting application            : mkvmerge v51.0.0 ('I Wish') 64-bit
6 E! E, K. P6 KWriting library                : libebml v1.4.0 + libmatroska v1.6.2, c0 c" c% {# h
- z6 t& i" X! c, J1 P- S

+ j1 V5 L: m4 R+ ]Video7 s/ N6 K7 t+ n& q
ID                             : 14 s! ^; {, l- i' T' B5 E+ C1 o# \# W
Format                         : HEVC! f9 \2 O- a) s* e# q0 L  n
Format/Info                    : High Efficiency Video Coding
- E% F( a. A* ^: CFormat profile                 : Main 10@L5@High
# n$ x, m/ \0 M3 N, ~4 J8 iCodec ID                       : V_MPEGH/ISO/HEVC
% N) {6 v% W* E, J7 M4 x, p+ zDuration                       : 2 h 28 min
! L0 \" }" W. A6 I( q  v0 q7 |Bit rate                       : 16.6 Mb/s
3 }5 _$ g) R0 J! I' zWidth                          : 3 840 pixels
' b( R1 z, ]0 X% t) f9 K/ KHeight                         : 1 616 pixels
6 a: R; Y4 r9 M0 ^Display aspect ratio           : 2.40:1! O  ^+ p: E3 b
Frame rate mode                : Constant0 }" ^0 x8 v9 @  _
Frame rate                     : 24.000 FPS6 L5 s2 x0 p; V* E* A+ e# ^) S+ x0 L
Color space                    : YUV0 h  p- v4 a/ X3 `8 M
Chroma subsampling             : 4:2:09 Y. s; S, ~' ?/ m3 a3 N
Bit depth                      : 10 bits$ S% r" Q! j6 l' v
Bits/(Pixel*Frame)             : 0.112+ P; s  i. [8 _4 i) P# C
Stream size                    : 17.2 GiB (98%)
7 x0 o, i! ^2 K) k/ ^' BDefault                        : Yes
* {& p8 a3 R3 |) PForced                         : No
8 H( Y" y1 y- y2 w" gColor range                    : Limited
9 W! `, [& D  t, S' _/ R; p1 SColor primaries                : BT.20205 @4 p0 x9 |& A' S$ _
Transfer characteristics       : PQ
: ^& Q. T; l  n, A- J% ~% n) ^Matrix coefficients            : BT.2020 non-constant
; [5 K: ]/ k$ n: i( K+ nMaximum Content Light Level    : 885 cd/m2' z6 z$ f  V" x
Maximum Frame-Average Light Le : 332 cd/m2
# b& f/ U0 X! T
1 Y3 }: ?1 S6 M
, Q6 U8 T: `9 a# A
Audio/ g4 Z! c( u# h4 ?* o
ID                             : 2) C/ ]; R0 Q% I8 {; }- l
Format                         : E-AC-3* I- e  r  u3 C: h- x4 B' S( F
Format/Info                    : Enhanced AC-33 h8 _/ j% w8 P9 n
Commercial name                : Dolby Digital Plus5 M3 h5 ^7 T8 M! n" O4 j9 y
Codec ID                       : A_EAC3) ]# c" }& ~/ P% R$ _. Y6 Y
Duration                       : 2 h 28 min, O  z* H. J* |- @2 @- n- j
Bit rate mode                  : Constant
3 [0 s% d" V& L6 v2 a& Y4 O' GBit rate                       : 256 kb/s
: A. I/ ?6 P4 ?% K* `' R' |+ \9 nChannel(s)                     : 6 channels" y1 m9 N7 p% |, T% G; k
Channel layout                 : L R C LFE Ls Rs( U+ g& Q( \6 z& }0 P8 {6 u
Sampling rate                  : 48.0 kHz, H, W) K& i4 U, R( Q6 v- X$ h) A
Frame rate                     : 31.250 FPS (1536 SPF)3 C3 O/ t1 `' {
Compression mode               : Lossy
' D* A- W! D1 I3 ^Stream size                    : 272 MiB (2%)4 N: C1 y& Y3 y% K4 G. e( w- i
Service kind                   : Complete Main$ R" u% l4 ~7 Y# C; o- a9 R
Default                        : Yes
6 f# G* d8 G+ e7 t; IForced                         : No

/ g8 z6 h3 A+ f. {2 [  [
蓝光高清网提示您  点击下方附件名称  马上开始下载: Y8 q, a0 X3 T: C

/ D6 [: d' X4 o  A( l
! W1 Y- b  J( d1 l1 e& a; f
多版本下载时请注意区分
$ I, V) I' l8 X. y& s; x2 v9 c5 H/ |, _* e/ ?! O
八佰4k.The.Eight.Hundred.2020.2160p.WEB-DL.4K.HDR.HEVC.DDP5.1-Hao4KWeb【17.50 GB】# G$ s' ~8 `5 r% O- w
八佰4k.The.Eight.Hundred.2020.2160p.WEB-DL.4K.HEVC.DDP5.1-Web.torrent (文件大小:52.03 KB)
加入蓝光高清网VIP会员  无限制下载本站所有资源---点这里

资源下载、资源播放、字幕使用、无法下载等常见问题---点这里
回复

使用道具 举报

 

精彩评论24

正序浏览
gdlmxia 发表于 2020-11-1 21:25:05 | 显示全部楼层
 
战争启示录之八佰壮士4k
回复

使用道具 举报

 
金鱼射手 发表于 2020-11-2 00:15:35 | 显示全部楼层
 
非常感谢蓝光高清网分享的各种知识和资源,祝蓝光高清网越来越好
回复

使用道具 举报

 
金鱼射手 发表于 2020-11-2 00:17:53 | 显示全部楼层
 
. I+ b' y' J5 e$ O$ L# p( P( b
非常感谢蓝光高清网给大家的享乐4k,祝蓝光高清网越办越好!
回复

使用道具 举报

 
优音美影 发表于 2020-11-2 10:17:36 | 显示全部楼层
 
非常感谢蓝光高清网分享的各种知识和资源,祝蓝光高清网越来越好
回复

使用道具 举报

 
喀喀 发表于 2020-11-2 10:30:27 | 显示全部楼层
 
# E6 j5 {5 F+ N) k
非常感谢蓝光高清网给大家的享乐4k,祝蓝光高清网越办越好!
回复

使用道具 举报

 
heng111 发表于 2020-11-2 11:28:46 | 显示全部楼层
 
谢谢分享  就等这个了!
回复

使用道具 举报

 
klyt 发表于 2020-11-2 19:34:16 | 显示全部楼层
 
非常感谢蓝光高清网分享的各种知识和资源,祝蓝光高清网越来越好
回复

使用道具 举报

 
wrangler7 发表于 2020-11-3 08:09:20 | 显示全部楼层
 
% K- d- O& M2 P4 ]0 r
非常感谢蓝光高清网给大家的享乐4k,祝蓝光高清网越办越好!
回复

使用道具 举报

 
ggang1 发表于 2020-11-4 09:24:04 | 显示全部楼层
 
非常感谢蓝光高清网分享的各种知识和资源,祝蓝光高清网越来越好
回复

使用道具 举报

 
您需要登录后才可以回帖 登录 | 立即注册

本版积分规则

0关注

2粉丝

93704帖子

  • 版块推荐
  • 百宝箱

电影推荐

更多+

热门电影

更多+

下载APP 签到更便捷

官方微信

手机APP

蓝光高清网

专注4k电影、4k视频、VR视频、高清电影、蓝光原盘资源

本站内容部分由用户自主分享和转载自互联网,转载目的在于传递更多信息,并不代表本网赞同其观点和对其真实性负责。

如有侵权、违反国家法律政策行为,请联系我们,我们会第一时间及时清除和处理!

举报反馈邮箱:lanniao@1080pro.net

Copyright   ©2019-2020  蓝光高清网    |网站地图