开通会员
全站资源畅享下载
4k原盘抢先下载
免高清币下载
会员用户组特权
开通会员
上传
收藏
首页
开启左侧

八佰 4k.The.Eight.Hundred.2020.2160p.WEB-DL.4K.HDR.HEVC.DDP5.1--4k电影下载—17.50 GB

[复制链接]
蓝鸟 发表于 2020-11-1 20:57:54 | 显示全部楼层 |阅读模式 打印 上一主题 下一主题

八佰(2020年上映)

主演王千源 / 张译 / 姜武 / 黄志忠 / 张俊一
导演管虎
类型剧情 战争 历史 
地区中国大陆 
片长148分钟
画质4K 原盘
音轨Dolby TrueHD 5.1 
评分豆瓣7.7分
电影【八佰】原盘信息
 

加入蓝光高清网,轻松下载最新4k资源

您需要 登录 才可以下载或查看,没有帐号?立即注册

x
简      介
' R" F) j* u8 ~! y
' e) g3 L/ o# t0 R8 ]2 p* t
! Z: n( a4 Q, V
     1937年淞沪会战的最后一役,“八百壮士”奉命坚守上海四行仓库,以少敌多顽强抵抗四天四夜。电影《八佰》由管虎导演,是亚洲首部全片使用IMAX摄影机拍摄的商业电影,将于2020年8月21日全国影院上映。/ T# ~# l: P% f, ?3 [$ W: I

# ~! j6 O9 W+ }8 E# B  S7 I1 ~& F, ^

7 [' ?$ l2 J9 x3 u影片参数
' n' F3 g1 i$ ~1 t& w1 z
八百启示录 / 战争启示录之八百壮士 / The Eight Hundred/八佰4k The Eight Hundred 2020 WEB-DL 4K HDR HEVC DDP5.1-4k电影下载! C" m0 K5 ^1 L' S. V

7 G- e3 H! D# }. k& m
% i/ ^7 t7 G0 D+ k
General1 Z0 p1 c3 C/ y* A4 z2 t0 I
Unique ID                      : 41505518951813126057809221267476244623 (0x1F39AC14082C14ACD7F6CD0A0DA0E88F)- f! X8 n, s5 J. i/ p2 L
Complete name                  : Z:\电影\Hao4k\八佰4k.The.Eight.Hundred.2020.2160p.WEB-DL.4K.HDR.HEVC.DDP5.1-Hao4KWeb.mkv
! ]! ~2 k" O2 w4 d+ |9 GFormat                         : Matroska
& u1 `0 b( n# l8 EFormat version                 : Version 4
  y6 H8 H- [! s' }File size                      : 17.5 GiB4 {3 c) v8 u) v* K
Duration                       : 2 h 28 min
. g* K4 a) q# I0 h- E. {; NOverall bit rate               : 16.9 Mb/s" b) k" Q! s, ?0 i
Encoded date                   : UTC 2020-11-01 03:48:02/ k) ?* W6 w  t# U* H& M
Writing application            : mkvmerge v51.0.0 ('I Wish') 64-bit
, p0 `9 `0 v& _5 F% A! i1 yWriting library                : libebml v1.4.0 + libmatroska v1.6.2
0 [+ p% z4 V  B* w1 n. N, c5 `) H& Z& c2 t' m- U
: y7 }9 q9 ~: |" ~
Video
) t" S, X: c: v) N% k# |: ^: uID                             : 1
& T6 o! G6 E3 S9 NFormat                         : HEVC" T. A. ~, v: Y. f% T
Format/Info                    : High Efficiency Video Coding( B) e# t# `' Q- a9 x. J- B/ x7 C
Format profile                 : Main 10@L5@High
3 ~+ z: l& h1 B1 r% mCodec ID                       : V_MPEGH/ISO/HEVC; X# O4 H' M- C6 I" o
Duration                       : 2 h 28 min& o2 |& t" O2 ]& R. W4 X! m
Bit rate                       : 16.6 Mb/s/ Y# B3 z* p! w" f" A* y3 X
Width                          : 3 840 pixels
" U# G" Z! w0 s& {" d7 K4 |Height                         : 1 616 pixels) D# z# G$ V9 ]
Display aspect ratio           : 2.40:1- N/ b& Q2 r) w
Frame rate mode                : Constant. w% r4 b/ a6 @3 u- J
Frame rate                     : 24.000 FPS! K/ C4 w. V+ i
Color space                    : YUV
+ ]! F  `0 }/ QChroma subsampling             : 4:2:0
$ [8 ~; s; g& c- BBit depth                      : 10 bits  x8 L& Q) P* Y3 X, L
Bits/(Pixel*Frame)             : 0.112
6 Z+ p$ k% r9 m' |" `4 {Stream size                    : 17.2 GiB (98%). x" A) [& g* m! X
Default                        : Yes
5 i1 f7 m  l8 J8 D# BForced                         : No
1 Y( B% C2 B9 Z: \& RColor range                    : Limited
! k% M8 o; k6 zColor primaries                : BT.2020
# n2 D% K9 h4 O% R: tTransfer characteristics       : PQ
$ W6 r" o4 b/ J: l3 p8 F: q+ P1 CMatrix coefficients            : BT.2020 non-constant
! n6 L/ \  z9 X+ Q# h* a2 c- j# h+ yMaximum Content Light Level    : 885 cd/m2' g! p! |: @# B" Q% _) i
Maximum Frame-Average Light Le : 332 cd/m2
: M  d& H; q9 V9 j4 n/ @; \  c5 c5 _& Z
, [: M4 {% l, a% N- D9 k1 a
Audio8 W2 |: m6 S$ ?2 e" P4 {
ID                             : 2! Z3 B6 I& ?* f7 C
Format                         : E-AC-3! |! K1 s$ \9 g; |/ Q" E
Format/Info                    : Enhanced AC-3
% A# }( r6 ~+ G$ }Commercial name                : Dolby Digital Plus
. u# l7 X% b1 g1 {; d" P2 j5 qCodec ID                       : A_EAC3
  ~5 ]0 Q/ f% j' bDuration                       : 2 h 28 min4 n+ {' }5 ^9 h: h* Z7 M
Bit rate mode                  : Constant
. ]' D( `+ k8 T2 t3 QBit rate                       : 256 kb/s
1 E0 K0 |/ J- oChannel(s)                     : 6 channels0 D4 {) j6 g1 B9 I! [) x0 U+ U
Channel layout                 : L R C LFE Ls Rs
9 R+ i. `4 f# S% F7 m" FSampling rate                  : 48.0 kHz
# R8 r1 |- Q8 w* W& EFrame rate                     : 31.250 FPS (1536 SPF)3 B$ G8 D) L% g) n  ^! k' t
Compression mode               : Lossy
3 `; }* a  [7 t3 z& S& i2 I2 D8 g$ qStream size                    : 272 MiB (2%)) t% H! X) i+ v% S+ I. g" b, A
Service kind                   : Complete Main
; E! j) I- Q+ V8 G3 GDefault                        : Yes: ]& B) |) }3 a4 k* u) ~
Forced                         : No
2 c/ r( T4 Z6 H- Z& J8 e; c9 J. y

$ ^# E  A! l" I# W: E% [
5 M' Y8 _( `2 q' P
蓝光高清网提示您  点击下方附件名称  马上开始下载# S2 R$ o7 H2 K5 P! h# C
& e+ `7 S6 J- ^6 ]5 ^; s  T* B

  q+ c( G! ~* N9 [多版本下载时请注意区分$ W7 V" X$ q% g! c/ m/ k8 i
9 r  s! D/ P  {$ o0 A
八佰4k.The.Eight.Hundred.2020.2160p.WEB-DL.4K.HDR.HEVC.DDP5.1-Hao4KWeb【17.50 GB】
2 l+ w' G9 J& w% f% v- [; |4 ^! @ 八佰4k.The.Eight.Hundred.2020.2160p.WEB-DL.4K.HDR.HEVC.DDP5.1-Hao4KWeb.torrent (52 KB, 下载次数: 112)
: B0 N; ^  m5 n8 ]

4 J/ F1 E& S3 F; r, q  `
0 [3 d4 d* Z" f$ p: q) y$ Y
温馨提示:
1 t0 X: o0 v6 X3 i% _5 o( p$ C2 P下载不了必然是自己操作问题,有问题请到新手学院去学习,谢谢。% V% L( A6 e) k; j! |
由于是第一时间发布新种,115网盘还需等待才可满速离线。
+ f3 S( P9 o0 V" H( U6 b0 c

8 Y/ t4 j3 b. g5 [0 T

+ o4 Z. K, z* S8 Z
加入蓝光高清网VIP会员  无限制下载本站所有资源---点这里

资源下载、资源播放、字幕使用、无法下载等常见问题---点这里
回复

使用道具 举报

 

精彩评论17

正序浏览
gdlmxia 发表于 2020-11-1 21:25:05 | 显示全部楼层
 
战争启示录之八佰壮士4k
回复

使用道具 举报

 
金鱼射手 发表于 2020-11-2 00:15:35 | 显示全部楼层
 
非常感谢蓝光高清网分享的各种知识和资源,祝蓝光高清网越来越好
回复

使用道具 举报

 
金鱼射手 发表于 2020-11-2 00:17:53 | 显示全部楼层
 

6 a% H* R4 J% K+ L- F1 {非常感谢蓝光高清网给大家的享乐4k,祝蓝光高清网越办越好!
回复

使用道具 举报

 
优音美影 发表于 2020-11-2 10:17:36 | 显示全部楼层
 
非常感谢蓝光高清网分享的各种知识和资源,祝蓝光高清网越来越好
回复

使用道具 举报

 
喀喀 发表于 2020-11-2 10:30:27 | 显示全部楼层
 
$ e$ v3 C0 l/ e7 e" `& S
非常感谢蓝光高清网给大家的享乐4k,祝蓝光高清网越办越好!
回复

使用道具 举报

 
heng111 发表于 2020-11-2 11:28:46 | 显示全部楼层
 
谢谢分享  就等这个了!
回复

使用道具 举报

 
klyt 发表于 2020-11-2 19:34:16 | 显示全部楼层
 
非常感谢蓝光高清网分享的各种知识和资源,祝蓝光高清网越来越好
回复

使用道具 举报

 
wrangler7 发表于 2020-11-3 08:09:20 | 显示全部楼层
 

1 I) ^" V, X% @$ x6 X# M' C0 Y3 l非常感谢蓝光高清网给大家的享乐4k,祝蓝光高清网越办越好!
回复

使用道具 举报

 
ggang1 发表于 2020-11-4 09:24:04 | 显示全部楼层
 
非常感谢蓝光高清网分享的各种知识和资源,祝蓝光高清网越来越好
回复

使用道具 举报

 
您需要登录后才可以回帖 登录 | 立即注册

本版积分规则

0关注

1粉丝

91143帖子

  • 版块推荐
  • 百宝箱

电影推荐

更多+

热门电影

更多+

关注我们:微信服务号

官方微信

手机版

蓝光高清网

专注4k电影、4k视频、VR视频、高清电影、蓝光原盘资源

本站内容部分由用户自主分享和转载自互联网,转载目的在于传递更多信息,并不代表本网赞同其观点和对其真实性负责。

如有侵权、违反国家法律政策行为,请联系我们,我们会第一时间及时清除和处理!

举报反馈邮箱:lanniao@1080pro.net

Copyright   ©2019-2020  蓝光高清网    |网站地图