游客您好
第三方账号登陆
  • 点击联系客服

    在线时间:9:00-18:00

    客服QQ

    1371333023

    电子邮件

    lanniao@1080pro.net
  • 烧友之家APP

    随时掌握烧友资讯

  • 扫描二维码

    关注微信公众号

推荐阅读
蓝鸟
未知星球 | 未知职业
  • 关注0
  • 粉丝2
  • 帖子94262
精选帖子
开启左侧

八佰 4k.The.Eight.Hundred.2020.2160p.WEB-DL.4K.HDR.HEVC.DDP5.1--4k电影下载—17.50 GB

  [复制链接]
蓝鸟 发表于 2020-11-1 20:57:54 | 显示全部楼层 |阅读模式 打印 上一主题 下一主题
八佰
上映时间:2020年
类型:剧情 战争 历史 
地区:中国大陆 
导演:管虎
主演:王千源 / 张译 / 姜武 / 黄志忠 / 张俊一
画质标准:4K  封装音轨:Dolby TrueHD 5.1 
豆瓣评分:7.7分

加入蓝光高清网,轻松下载最新4k资源

您需要 登录 才可以下载或查看,没有帐号?立即注册

x
本帖最后由 蓝鸟 于 2020-12-17 20:22 编辑 * S3 g$ }7 F0 {7 K* o& x$ j
, j' A# \0 s. z) M2 I6 V
简      介
$ x. B  r4 ]8 D& d
8 w, ^' Y$ \% q& U" a     1937年淞沪会战的最后一役,“八百壮士”奉命坚守上海四行仓库,以少敌多顽强抵抗四天四夜。电影《八佰》由管虎导演,是亚洲首部全片使用IMAX摄影机拍摄的商业电影,将于2020年8月21日全国影院上映。
7 k9 Z: Y- l2 u+ u3 @$ F5 g* e
. }0 z  W. V! O' P/ Z4 q' U
  y1 x- {2 Y# B2 w" N
影片参数
! f( F/ {  W6 c+ X/ R1 n
八百启示录 / 战争启示录之八百壮士 / The Eight Hundred/八佰4k The Eight Hundred 2020 WEB-DL 4K HDR HEVC DDP5.1-4k电影下载- }+ V" a# H* V- K

5 R8 }: O4 j3 R3 s% w3 {
1 T3 v1 d3 n; n: S  ~5 A  D
General1 F* X4 P) c+ n% p8 d8 f, }
Unique ID                      : 41505518951813126057809221267476244623 (0x1F39AC14082C14ACD7F6CD0A0DA0E88F)0 z2 L: [# B- o0 u
Complete name                  : Z:\电影\Hao4k\八佰4k.The.Eight.Hundred.2020.2160p.WEB-DL.4K.HDR.HEVC.DDP5.1-Hao4KWeb.mkv
2 ^( f( r3 Q1 ^, v, AFormat                         : Matroska/ F4 e3 R' b3 G* t% |* D
Format version                 : Version 4
/ F$ O  `0 N- q- X7 QFile size                      : 17.5 GiB
9 `( {8 e! X$ p1 n- D  p+ \  kDuration                       : 2 h 28 min- l/ F) B! r* Y3 |, m
Overall bit rate               : 16.9 Mb/s0 {2 n6 L7 O+ S8 z
Encoded date                   : UTC 2020-11-01 03:48:02. X7 h+ ~* g2 A- G: I
Writing application            : mkvmerge v51.0.0 ('I Wish') 64-bit& H% w/ p+ G2 Y
Writing library                : libebml v1.4.0 + libmatroska v1.6.2$ m, R+ c6 `5 K8 X7 U' d
# k. P4 v6 N8 t( g! m, Z

2 E# n9 k4 D+ ]- l' b/ M  ?( fVideo- o, O( J1 I7 K$ }- V
ID                             : 10 M/ F  Q% V4 b5 f/ J
Format                         : HEVC. W+ `1 ~: D' T
Format/Info                    : High Efficiency Video Coding
8 Z8 w4 y% a% E3 B7 KFormat profile                 : Main 10@L5@High' V8 y; u2 E# h; A4 ]* [
Codec ID                       : V_MPEGH/ISO/HEVC
' R6 ?% {# C* K; [- H  hDuration                       : 2 h 28 min/ {$ W: R" ?3 D! z$ N( U: `
Bit rate                       : 16.6 Mb/s1 }  z0 }$ i6 Z0 m* z& x0 I- T2 M
Width                          : 3 840 pixels* l* q- m5 l& J, t( o* D
Height                         : 1 616 pixels  ?/ J; O& f" R$ U
Display aspect ratio           : 2.40:1
! S; [; Q0 {, r" `9 j2 O5 dFrame rate mode                : Constant
' f0 d( r7 K9 Z& A+ hFrame rate                     : 24.000 FPS
, G2 G( p1 [' J; LColor space                    : YUV9 t4 s7 ^9 N6 ]. d/ d
Chroma subsampling             : 4:2:0' g/ I2 _) y2 j4 d/ L
Bit depth                      : 10 bits$ }3 k) r' M/ |  _! u
Bits/(Pixel*Frame)             : 0.112( S! K) u# C/ Z' x( |: u( ^
Stream size                    : 17.2 GiB (98%)* o; v4 a" `5 F
Default                        : Yes
4 p4 x! R/ \  V9 E8 ZForced                         : No
+ l$ e2 v: K& t% L( ^  hColor range                    : Limited
1 K5 k  D9 ?: i( nColor primaries                : BT.2020. T5 E  G; X' T& u3 N6 R: H- h
Transfer characteristics       : PQ  F  l( m, Q3 c) W* x' \3 o$ L
Matrix coefficients            : BT.2020 non-constant4 z, E& `3 s: B5 S7 X+ C
Maximum Content Light Level    : 885 cd/m2
* F0 ]* Q( Y$ L  t, wMaximum Frame-Average Light Le : 332 cd/m2: ~9 g: h- G: m. J" d' _9 d
! C, L: T3 r! p6 i/ c. N

8 l' w* q& ]% b& K( K' x0 p6 kAudio
3 U6 @& M8 b' |2 @3 S# _- x; oID                             : 2
( K8 U- h  ^& ^% pFormat                         : E-AC-3
1 e- ~) R$ }4 b! q- sFormat/Info                    : Enhanced AC-39 ?$ s' N3 a. c, e. x
Commercial name                : Dolby Digital Plus
- R- \- @+ Z- a' l' xCodec ID                       : A_EAC34 L6 \" Y  z0 n% m
Duration                       : 2 h 28 min& }7 M* u, B0 @
Bit rate mode                  : Constant  C# F8 S7 e, e" h* X
Bit rate                       : 256 kb/s1 d3 D" A" j2 I8 v) k
Channel(s)                     : 6 channels+ F, ?$ N3 Q1 r
Channel layout                 : L R C LFE Ls Rs, f$ q: {" t' C. J" T
Sampling rate                  : 48.0 kHz
8 ^3 r+ Z: m! {) sFrame rate                     : 31.250 FPS (1536 SPF)
, A5 q! ]' M% {, z7 @Compression mode               : Lossy
/ S7 O% y; u$ P6 d6 R! l; T$ OStream size                    : 272 MiB (2%)" v$ R; T, ^1 E7 O" D) Q( ^: d
Service kind                   : Complete Main
8 Q$ _4 t6 L$ j0 F* [! z1 B, Q& oDefault                        : Yes# \  I" {+ S: _+ v3 [
Forced                         : No

5 b8 j5 O. S! k1 @0 K9 P
蓝光高清网提示您  点击下方附件名称  马上开始下载4 M1 ~  \! z/ o- E% w# m/ U' M

! P) p- X2 a" h2 [! d: _
: R9 T0 f3 O% r' a
多版本下载时请注意区分* @; s7 f% H# u& O7 Q: r3 u

4 L: d- R/ @* U! q八佰4k.The.Eight.Hundred.2020.2160p.WEB-DL.4K.HDR.HEVC.DDP5.1-Hao4KWeb【17.50 GB】
; @' w3 E* R5 ^7 @0 n3 c2 j 八佰4k.The.Eight.Hundred.2020.2160p.WEB-DL.4K.HEVC.DDP5.1-Web.torrent (文件大小:52.03 KB)
加入蓝光高清网VIP会员  无限制下载本站所有资源---点这里

资源下载、资源播放、字幕使用、无法下载等常见问题---点这里
回复

使用道具 举报

精彩评论34

gdlmxia 发表于 2020-11-1 21:25:05 | 显示全部楼层
战争启示录之八佰壮士4k
回复 支持 反对

使用道具 举报

金鱼射手 发表于 2020-11-2 00:15:35 | 显示全部楼层
非常感谢蓝光高清网分享的各种知识和资源,祝蓝光高清网越来越好
回复 支持 反对

使用道具 举报

金鱼射手 发表于 2020-11-2 00:17:53 | 显示全部楼层

" Z+ F: d+ p, z! q- A( y3 j' P非常感谢蓝光高清网给大家的享乐4k,祝蓝光高清网越办越好!
回复 支持 反对

使用道具 举报

优音美影 发表于 2020-11-2 10:17:36 | 显示全部楼层
非常感谢蓝光高清网分享的各种知识和资源,祝蓝光高清网越来越好
回复 支持 反对

使用道具 举报

喀喀 发表于 2020-11-2 10:30:27 | 显示全部楼层

5 I" Y8 n( x/ u; d4 k% E" w非常感谢蓝光高清网给大家的享乐4k,祝蓝光高清网越办越好!
回复 支持 反对

使用道具 举报

heng111 发表于 2020-11-2 11:28:46 | 显示全部楼层
谢谢分享  就等这个了!
回复 支持 反对

使用道具 举报

klyt 发表于 2020-11-2 19:34:16 | 显示全部楼层
非常感谢蓝光高清网分享的各种知识和资源,祝蓝光高清网越来越好
回复 支持 反对

使用道具 举报

wrangler7 发表于 2020-11-3 08:09:20 | 显示全部楼层
% F4 P3 n4 {3 o
非常感谢蓝光高清网给大家的享乐4k,祝蓝光高清网越办越好!
回复 支持 反对

使用道具 举报

ggang1 发表于 2020-11-4 09:24:04 | 显示全部楼层
非常感谢蓝光高清网分享的各种知识和资源,祝蓝光高清网越来越好
回复 支持 反对

使用道具 举报

您需要登录后才可以回帖 登录 | 立即注册

本版积分规则

烧友之家(蓝光高清网)本站内容部分由用户自主分享和转载自互联网,转载目的在于传递更多信息,并不代表本网赞同其观点和对其真实性负责。 如有侵权、违反国家法律政策行为,请联系我们,我们会第一时间及时清除和处理!
蓝光高清网 综合资讯平台
关注我们
  • 官方微信公众号
  • 扫码下载官方APP

X3.4 Licensed© 2001-2013 蓝光高清网 烧友之家APP |网站地图