蓝光高清网

开启左侧

八佰 4k.The.Eight.Hundred.2020.2160p.WEB-DL.4K.HDR.HEVC.DDP5.1--4k电影下载—17.50 GB

  [复制链接]

2020-11-4 09:24:04 105268 51

蓝鸟 发表于 2020-11-1 20:57:54 |阅读模式

蓝鸟 楼主

2020-11-1 20:57:54

八佰
上映时间:2020年
类型:剧情 战争 历史 
地区:中国大陆 
导演:管虎
主演:王千源 / 张译 / 姜武 / 黄志忠 / 张俊一
画质标准:4K  封装音轨:Dolby TrueHD 5.1 
豆瓣评分:7.7分
本帖最后由 蓝鸟 于 2020-12-17 20:22 编辑
5 M) h4 A  H+ q6 p
, e0 a9 l$ L4 E& {, ]( G简      介
* p8 P& n$ b0 n+ S% z$ [& H' T
5 s" Q4 c2 U  J1 L     1937年淞沪会战的最后一役,“八百壮士”奉命坚守上海四行仓库,以少敌多顽强抵抗四天四夜。电影《八佰》由管虎导演,是亚洲首部全片使用IMAX摄影机拍摄的商业电影,将于2020年8月21日全国影院上映。7 P. Y9 l6 [1 g+ f; j8 M
: m  K+ l4 C# a7 ^  P" G+ b
% {: }3 g5 T, h( a0 v/ c* a5 Z2 z
影片参数
8 f% `) }% @6 _
八百启示录 / 战争启示录之八百壮士 / The Eight Hundred/八佰4k The Eight Hundred 2020 WEB-DL 4K HDR HEVC DDP5.1-4k电影下载% C& `2 F! D3 l1 |8 D& E! g

9 Y" S% Y* ~7 U* @8 a0 A. b4 X

! m$ U, n- Z8 k5 c2 t9 cGeneral0 F  f$ ~0 J. G  A& v8 w
Unique ID                      : 41505518951813126057809221267476244623 (0x1F39AC14082C14ACD7F6CD0A0DA0E88F); ^  b! f3 s: k5 N; N3 A% p# w) A8 Y
Complete name                  : Z:\电影\Hao4k\八佰4k.The.Eight.Hundred.2020.2160p.WEB-DL.4K.HDR.HEVC.DDP5.1-Hao4KWeb.mkv
7 x5 T& t1 a# G) M% X$ D: l) lFormat                         : Matroska3 J3 M, T) b& `& O2 [" w
Format version                 : Version 4
8 I7 X7 \; o4 gFile size                      : 17.5 GiB6 E* g% I0 A- a5 ?$ k4 l& I
Duration                       : 2 h 28 min
: o* p& F: [4 e9 Z; w1 U6 T6 U/ }5 JOverall bit rate               : 16.9 Mb/s4 ~/ w0 O- v+ C! w% y4 n; m, M% U
Encoded date                   : UTC 2020-11-01 03:48:023 D- \, V4 ?( N4 n
Writing application            : mkvmerge v51.0.0 ('I Wish') 64-bit
5 F: A. D; m4 V8 o4 A3 x) kWriting library                : libebml v1.4.0 + libmatroska v1.6.2
; q. y  R; ]0 A- n5 R/ v0 V1 X9 V
7 z4 [3 a* h8 Z
Video
9 R; {% `; x( m+ r: m2 kID                             : 1
7 ~9 G+ i: m$ j8 {1 H& wFormat                         : HEVC
. n4 K0 t5 q& `/ c+ n0 j4 L, XFormat/Info                    : High Efficiency Video Coding
, P8 F& `5 R/ r( d' GFormat profile                 : Main 10@L5@High
  D' P# ]5 ^# D5 V7 L: iCodec ID                       : V_MPEGH/ISO/HEVC
4 X# ]! ^0 B' ~% ^6 X" ZDuration                       : 2 h 28 min
7 T. q4 t: c$ w# ~  aBit rate                       : 16.6 Mb/s& }4 f8 ~5 y, w* Z- }
Width                          : 3 840 pixels0 _. y/ s6 p' F1 {
Height                         : 1 616 pixels4 v$ r4 F- |" ^( F0 m" \
Display aspect ratio           : 2.40:15 ?. Y4 u+ v, m1 f9 B
Frame rate mode                : Constant
9 D) I* ^& j3 FFrame rate                     : 24.000 FPS
$ g( g; N3 T5 @: X. aColor space                    : YUV+ |; {5 X! \# S1 C+ W. D
Chroma subsampling             : 4:2:0
' Z9 k) U; p8 z- ?) a$ eBit depth                      : 10 bits
, I* T9 @7 S' X* s7 k2 hBits/(Pixel*Frame)             : 0.1129 A6 K  {0 n3 A! L$ R% z3 A' z
Stream size                    : 17.2 GiB (98%)0 a% U8 Q3 C# s! Z8 k
Default                        : Yes
% h- K$ I* K, o, p& l  m# A" PForced                         : No
% G4 w* r3 C  g. l8 \Color range                    : Limited1 ?) c1 Y7 F$ r; S( u2 P& f
Color primaries                : BT.2020
* |2 X1 O. M9 Y% g! C7 Y2 d: HTransfer characteristics       : PQ7 C' @9 N8 a$ X& A' l3 S! c* O
Matrix coefficients            : BT.2020 non-constant
! ^5 ]+ O/ [- z2 d2 l: NMaximum Content Light Level    : 885 cd/m2
. H, d8 z& q4 K& _# XMaximum Frame-Average Light Le : 332 cd/m2
6 o+ i: S9 @) h% Q3 T; T5 }$ {) d7 T1 L" \- j3 W
1 I% C; U7 f+ Z
Audio
6 A* A- z: n5 W' YID                             : 2
* d7 \& u, k, j* N9 |* r7 `! k1 OFormat                         : E-AC-3
8 s+ T+ \! w; U7 x8 e' WFormat/Info                    : Enhanced AC-3& V* m' j, }& q% V
Commercial name                : Dolby Digital Plus, H" e, [9 l( T9 w& S9 X9 ?
Codec ID                       : A_EAC3' ]. N; X, p+ m" S- o+ R  m
Duration                       : 2 h 28 min
, b! V' q4 U" C5 L9 T/ t1 w  F  YBit rate mode                  : Constant4 c8 C0 [, h9 [. F$ J$ g
Bit rate                       : 256 kb/s2 Q5 e2 ?# T; B* v, g% Y7 \
Channel(s)                     : 6 channels' [+ {  e, A' D
Channel layout                 : L R C LFE Ls Rs
: K- b$ Y4 C& f9 |Sampling rate                  : 48.0 kHz- }9 Y; z3 t0 w, \) P& ~
Frame rate                     : 31.250 FPS (1536 SPF)
' p% y5 K3 e0 m  u7 VCompression mode               : Lossy
$ X2 b8 k  y( j! Q9 OStream size                    : 272 MiB (2%)2 s+ ?9 W4 L) o9 S- ]1 V# I7 P$ y
Service kind                   : Complete Main9 ^. D8 T! }$ m! g& b% A
Default                        : Yes
! s/ ]3 Q5 B0 w# _5 d. PForced                         : No

$ X' F3 x% u) C2 H7 p
蓝光高清网提示您  点击下方附件名称  马上开始下载
2 M) N3 T& E5 C6 i8 T" l- z1 j. Y9 t. U- V
& }3 `! Y% E* D4 z
多版本下载时请注意区分
% x" a5 d# X6 H& Q6 J3 l" B/ d, F' o7 m# j9 t% H& F' s
八佰4k.The.Eight.Hundred.2020.2160p.WEB-DL.4K.HDR.HEVC.DDP5.1-Hao4KWeb【17.50 GB】
1 j! _/ ~! h, ~: n" U 八佰4k.The.Eight.Hundred.2020.2160p.WEB-DL.4K.HEVC.DDP5.1-Web.torrent (52.03 KB)

点评

感谢楼主分享  发表于 2021-12-18 22:42
加入蓝光高清网VIP会员  无限制下载本站所有资源---点这里

资源下载、资源播放、字幕使用、无法下载等常见问题---点这里
回复

使用道具 举报

全部回复52

gdlmxia 发表于 2020-11-1 21:25:05

gdlmxia 沙发

2020-11-1 21:25:05

战争启示录之八佰壮士4k
回复 支持 反对

使用道具 举报

金鱼射手 发表于 2020-11-2 00:15:35

金鱼射手 板凳

2020-11-2 00:15:35

非常感谢蓝光高清网分享的各种知识和资源,祝蓝光高清网越来越好
回复 支持 反对

使用道具 举报

金鱼射手 发表于 2020-11-2 00:17:53

金鱼射手 地板

2020-11-2 00:17:53


( \* E; f9 A/ P( x非常感谢蓝光高清网给大家的享乐4k,祝蓝光高清网越办越好!
回复 支持 反对

使用道具 举报

优音美影 发表于 2020-11-2 10:17:36

优音美影 5#

2020-11-2 10:17:36

非常感谢蓝光高清网分享的各种知识和资源,祝蓝光高清网越来越好
回复 支持 反对

使用道具 举报

喀喀 发表于 2020-11-2 10:30:27

喀喀 6#

2020-11-2 10:30:27

. i: f0 h1 ^  c1 M% ?
非常感谢蓝光高清网给大家的享乐4k,祝蓝光高清网越办越好!
回复 支持 反对

使用道具 举报

heng111 发表于 2020-11-2 11:28:46

heng111 7#

2020-11-2 11:28:46

谢谢分享  就等这个了!
回复 支持 反对

使用道具 举报

klyt 发表于 2020-11-2 19:34:16

klyt 8#

2020-11-2 19:34:16

非常感谢蓝光高清网分享的各种知识和资源,祝蓝光高清网越来越好
回复 支持 反对

使用道具 举报

wrangler7 发表于 2020-11-3 08:09:20

wrangler7 9#

2020-11-3 08:09:20

# S" u) K8 \; M, H$ T
非常感谢蓝光高清网给大家的享乐4k,祝蓝光高清网越办越好!
回复 支持 反对

使用道具 举报

ggang1 发表于 2020-11-4 09:24:04

ggang1 10#

2020-11-4 09:24:04

非常感谢蓝光高清网分享的各种知识和资源,祝蓝光高清网越来越好
回复 支持 反对

使用道具 举报

发表回复

您需要登录后才可以回帖 登录 | 立即注册

返回列表 本版积分规则

  • 发帖

  • 在线客服

  • 微信

  • 客户端

  • 返回顶部