开通会员
全站资源畅享下载
4k原盘抢先下载
免高清币下载
会员用户组特权
开通会员
上传
收藏
首页
开启左侧

海绵宝宝:营救大冒险 4k The.SpongeBob.Movie.Sponge.on.the.Run.2020.2160p.NF.WEB-DL.x265.10bit.HDR.DDP5.1.Atmos-4k电影下载—9.86 GB GB

[复制链接]
蓝鸟 发表于 2020-11-7 10:21:51 | 显示全部楼层 |阅读模式 打印 上一主题 下一主题

海绵宝宝:营救大冒险(2020年上映)

主演基努·里维斯 / 奥卡菲娜 / 克兰西·布朗 / 汤姆·肯尼 / 比尔·法格巴克
导演蒂姆·希尔
类型喜剧 动画 冒险 
地区美国 
片长91分钟
画质4K HDR 原盘
音轨Dolby TrueHD 5.1 
评分豆瓣7.2分
电影【海绵宝宝:营救大冒险】原盘信息
 

加入蓝光高清网,轻松下载最新4k资源

您需要 登录 才可以下载或查看,没有帐号?立即注册

x
简       介
) \$ U: a9 ~3 Q2 `. n
: }  w4 u" r1 r! C. R; G  i  《海绵宝宝:营救大冒险》讲述了海绵宝宝心爱的宠物小蜗被绑架后,海绵宝宝和派大星前往失落的大西洋城展开营救冒险的故事。在这场充满危险又妙趣横生的营救行动中,海绵宝宝和他的朋友们用实际行动证明了友谊的力量无限大!" Q6 }/ c; e6 d! f& v- ^7 {. d

! d( P8 S) l- |: w

7 \  }3 V& Y6 V/ ~2 e: F/ t影片参数( b8 M6 X) |/ |$ }9 m0 J! Q
海绵宝宝3 / 海绵宝宝:奔跑吧(台) / 海绵宝宝:急急脚走佬(港) / SpongeBob Squarepants 3 / Spongebob Movie 3 / It's a Wonderful Sponge/海绵宝宝:营救大冒险4k The.SpongeBob.Movie.Sponge.on.the.Run.2020.2160p.NF.WEB-DL.x265.10bit.HDR.DDP5.1.Atmos-4k电影信息% F: l; R* y% T( e  n6 Q; N
Video
/ Q8 o& e+ m* o4 DID : 15 {, F' _0 o/ |- o
Format : HEVC. d) n% i8 N2 v7 x
Format/Info : High Efficiency Video Coding* W. v- F! d9 e" X+ |9 K6 Z. B8 M
Format profile : Main 10@L5@Main$ @4 R; Z; m) @2 T5 J
HDR format : SMPTE ST 2086, HDR10 compatible
: M4 T. ~- \! h1 Y$ O. i8 kCodec ID : V_MPEGH/ISO/HEVC
3 Y4 X. J- S" V; vDuration : 1 h 31 min" I- J- @6 e" X/ }
Bit rate : 14.6 Mb/s' a/ \; i( G$ P& M
Width : 3 840 pixels1 r: a  a/ x; z
Height : 2 160 pixels# C+ Z4 q3 p  l
Display aspect ratio : 16:9. r, x% G0 _0 X  i5 m8 v) Q
Frame rate mode : Constant% B6 P: E4 r% h; q
Frame rate : 23.976 (24000/1001) FPS( G" ~5 A; E% [( u4 g- w* @
Color space : YUV
0 I$ z8 v% }- i7 bChroma subsampling : 4:2:0 (Type 2)
$ b' r! ]6 u7 h9 a+ xBit depth : 10 bits% x+ ^# l. l5 q
Bits/(Pixel*Frame) : 0.074
3 c4 J. x2 ]9 Y$ f: U( GStream size : 9.35 GiB (95%)0 K6 `* O# {" G
Default : Yes& _0 s: g4 h$ v7 ^/ ]
Forced : No
& m, S6 j3 v7 KColor range : Limited+ m" X1 Q$ w9 b4 y; s: _+ d! J$ |7 O
Color primaries : BT.2020$ b8 ?* C% F) l' o1 A
Transfer characteristics : PQ* A* V, X0 V+ ~+ \' B# g1 R. A
Matrix coefficients : BT.2020 non-constant+ E1 Y- x8 |/ @! Z* g0 Z5 j
Mastering display color primaries : Display P3
. T/ [* U2 N: \- `; tMastering display luminance : min: 0.0001 cd/m2, max: 1000 cd/m2) i9 ?# P; u+ S. K  X
Maximum Content Light Level : 994 cd/m2
& a: a. ~' B; _Maximum Frame-Average Light Level : 180 cd/m2
, w) S+ Y/ f& q! v( W4 `: d4 H" r9 z8 z; X- w, n5 P3 Y
Audio
, P" H7 e. f2 d( r# |ID : 29 E6 w% Y1 S9 ^3 w; T
Format : E-AC-3 JOC- j! i; Y9 w( w
Format/Info : Enhanced AC-3 with Joint Object Coding4 i; B. M/ \1 J; z4 U4 C
Commercial name : Dolby Digital Plus with Dolby Atmos
. y  i6 u# T# BCodec ID : A_EAC3
/ S- d7 h2 |2 y$ ^Duration : 1 h 35 min/ `' O& C. [7 y% @1 A' Z, ^
Bit rate mode : Constant
1 m* ?1 |! f% S. P  r+ NBit rate : 768 kb/s
# F# K7 S) q3 `  l; c( Y( s0 aChannel(s) : 6 channels# X9 H, {4 L: s+ j% G) r$ w
Channel layout : L R C LFE Ls Rs
, ?, q% `' A5 s* J6 z3 a4 \Sampling rate : 48.0 kHz
! r9 T4 x* C* U8 L4 w1 M5 ^Frame rate : 31.250 FPS (1536 SPF)
* v! z6 [* {, F! o$ DCompression mode : Lossy
# k7 J# N  p. V7 F( f4 x3 d) d: R5 u% TStream size : 524 MiB (5%)7 y( D- K& V5 E# s
Language : English) \8 {5 @* `/ ^8 J
Service kind : Complete Main- `* j" u" s: J& Y0 e
Default : Yes
5 H! B& L' ?  C3 _9 T6 V" c" ^- PForced : No
5 r. z) }  c( H/ G( qComplexity index : 161 r# t1 [; H% K$ D! N3 m
Number of dynamic objects : 159 Q1 n+ ?+ ^' h' |/ s, N1 X, H
Bed channel count : 1 channel6 S2 S. W/ [  w; d. @
Bed channel configuration : LFE

+ p( X2 u. Q8 [& B# ?; N( O4 S1 V4 E. [- M6 ^2 J
蓝光高清网提示您  点击下方附件名称  马上开始下载
# D3 ]0 c) D) o  z0 B, U5 W7 ~
2 F4 U/ i& \+ r4 `
8 ~+ S& J' N3 k" Y/ i7 E9 D! b
海绵宝宝3 / 海绵宝宝:奔跑吧(台) / 海绵宝宝:急急脚走佬(港) / SpongeBob Squarepants 3 / Spongebob Movie 3 / It's a Wonderful Sponge/海绵宝宝:营救大冒险4k The.SpongeBob.Movie.Sponge.on.the.Run.2020.2160p.NF.WEB-DL.x265.10bit.HDR.DDP5.1.Atmos-4k电影下载
4 _2 k3 P2 H  d, S' X
5 a1 j& P. m) P; s$ |* ^
海绵宝宝:营救大冒险4k The.SpongeBob.Movie.Sponge.on.the.Run.2020.2160p.NF.WEB-DL.x265.10bit.HDR.DDP5.1.Atmos【9.86 GB】0 U1 f( q" t; o
海绵宝宝:营救大冒险4k The.SpongeBob.Movie.Sponge.on.the.Run.2020.2160p.N.torren.torrent (49.93 KB, 下载次数: 6)
* ?6 I/ n( M* `: L
, t9 U5 W! j- y/ v& x' q, T; W) O

$ Z' i8 y- g; [0 b" U
海绵宝宝:营救大冒险中文字幕下载$ h/ I# {# a( g, _# u: X: u! ^
海綿寶寶:奔跑吧 The.SpongeBob.Movie.Sponge.on.the.Run.2020 Subs.rar (1.12 MB, 下载次数: 9)
$ O, p7 ?' X8 o% P' {+ P0 a* p
/ r3 I% O1 Q; R$ X

+ _3 ]5 O0 |! S* s% a

# U4 k: `: i2 l
加入蓝光高清网VIP会员  无限制下载本站所有资源---点这里

资源下载、资源播放、字幕使用、无法下载等常见问题---点这里
回复

使用道具 举报

 

精彩评论3

正序浏览
喀喀 发表于 2020-11-7 19:16:19 | 显示全部楼层
 

! H( ?! _4 _! m4 k1 _- ?1 M9 L. x; }祝蓝光高清网越办越红火。
回复

使用道具 举报

 
喀喀 发表于 2020-11-8 12:25:29 | 显示全部楼层
 
* C+ \8 y. O+ \9 @' c" l
感谢蓝光高清网提供的优质资源,希望网站越办越好。
回复

使用道具 举报

 
fafa000hao 发表于 2020-11-11 14:26:26 | 显示全部楼层
 

2 P! w! c7 b0 ^; G& Z7 y3 \# f+ ~非常感谢蓝光高清网给大家的享乐4k,祝蓝光高清网越办越好!
回复

使用道具 举报

 
您需要登录后才可以回帖 登录 | 立即注册

本版积分规则

0关注

1粉丝

91143帖子

  • 版块推荐
  • 百宝箱

电影推荐

更多+

热门电影

更多+

关注我们:微信服务号

官方微信

手机版

蓝光高清网

专注4k电影、4k视频、VR视频、高清电影、蓝光原盘资源

本站内容部分由用户自主分享和转载自互联网,转载目的在于传递更多信息,并不代表本网赞同其观点和对其真实性负责。

如有侵权、违反国家法律政策行为,请联系我们,我们会第一时间及时清除和处理!

举报反馈邮箱:lanniao@1080pro.net

Copyright   ©2019-2020  蓝光高清网    |网站地图