开通会员
全站资源畅享下载
4k原盘抢先下载
免高清币下载
会员用户组特权
开通会员
上传
收藏
首页
开启左侧

海绵宝宝:营救大冒险 4k The.SpongeBob.Movie.Sponge.on.the.Run.2020.2160p.NF.WEB-DL.x265.10bit.HDR.DDP5.1.Atmos-4k电影下载—9.86 GB GB

[复制链接]
蓝鸟 发表于 2020-11-7 10:21:51 | 显示全部楼层 |阅读模式 打印 上一主题 下一主题

海绵宝宝:营救大冒险(2020年上映)

主演基努·里维斯 / 奥卡菲娜 / 克兰西·布朗 / 汤姆·肯尼 / 比尔·法格巴克
导演蒂姆·希尔
类型喜剧 动画 冒险 
地区美国 
片长91分钟
画质4K HDR 原盘
音轨Dolby TrueHD 5.1 
评分豆瓣7.2分
电影【海绵宝宝:营救大冒险】原盘信息
 

加入蓝光高清网,轻松下载最新4k资源

您需要 登录 才可以下载或查看,没有帐号?立即注册

x
本帖最后由 蓝鸟 于 2020-12-17 20:17 编辑
3 W- q9 ^( M  D# s! y3 r+ e8 R& ]' [: j. _9 X% w: K3 N4 t% p
简       介9 K, ?: \8 q5 L4 K- O' ?( ?

3 @  O& ^3 W" k- ~. }  《海绵宝宝:营救大冒险》讲述了海绵宝宝心爱的宠物小蜗被绑架后,海绵宝宝和派大星前往失落的大西洋城展开营救冒险的故事。在这场充满危险又妙趣横生的营救行动中,海绵宝宝和他的朋友们用实际行动证明了友谊的力量无限大!
% J% s' y. D! E. X4 y" F- m. e0 `% X: W2 _

# _* v! \# a$ Z3 J影片参数
& S5 K: o8 _0 N. C
海绵宝宝3 / 海绵宝宝:奔跑吧(台) / 海绵宝宝:急急脚走佬(港) / SpongeBob Squarepants 3 / Spongebob Movie 3 / It's a Wonderful Sponge/海绵宝宝:营救大冒险4k The.SpongeBob.Movie.Sponge.on.the.Run.2020.2160p.NF.WEB-DL.x265.10bit.HDR.DDP5.1.Atmos-4k电影信息
5 e. }$ f* ~7 k: p' lVideo
4 c! R$ B4 S! b* wID : 1
9 a; O& M5 B) q5 HFormat : HEVC; Z9 Q' V( d* s% E# H
Format/Info : High Efficiency Video Coding
( `! H2 p- U: t) y2 M1 z4 w9 V, f3 @Format profile : Main 10@L5@Main
& F7 o& f! s5 j% Y- LHDR format : SMPTE ST 2086, HDR10 compatible! B" M, O$ l* {6 i( G& O0 n8 k* `
Codec ID : V_MPEGH/ISO/HEVC0 {9 A; P  {* U1 F" G; [
Duration : 1 h 31 min4 Z4 ]# ?1 q1 `: X$ Z! y
Bit rate : 14.6 Mb/s
' ]: W& }4 p' n- w; Y* L7 R: JWidth : 3 840 pixels8 _! a+ Q) u4 {5 \
Height : 2 160 pixels
; @4 X5 }+ Q1 S* bDisplay aspect ratio : 16:9% V5 f7 x8 M& Y# e5 Y. m
Frame rate mode : Constant5 H, s2 i5 R! `& H
Frame rate : 23.976 (24000/1001) FPS, U. K4 Z" c% A
Color space : YUV
# J! e7 K/ P" w7 N+ QChroma subsampling : 4:2:0 (Type 2)$ A5 N! n# U+ G, y' Z' ~5 D. J" |
Bit depth : 10 bits
1 T" `; _2 k& x5 Q( GBits/(Pixel*Frame) : 0.0749 [' {' M1 V! y% x4 w" S
Stream size : 9.35 GiB (95%)+ T- A+ h0 u; u( J0 L2 G
Default : Yes) S3 _" h; D1 l' O0 l8 `
Forced : No4 s- R: f$ o4 X9 U; p8 b
Color range : Limited
) n9 y5 F; y- N) u& F% QColor primaries : BT.2020
: k. s$ k& ]1 N8 NTransfer characteristics : PQ
! l& u( r1 B# u9 E' wMatrix coefficients : BT.2020 non-constant' W  \0 _- g' w0 x, ?2 ~/ X* i
Mastering display color primaries : Display P3
8 ]; M7 i, P7 ?Mastering display luminance : min: 0.0001 cd/m2, max: 1000 cd/m2. p- x# b# }8 ^5 r
Maximum Content Light Level : 994 cd/m2
6 E0 W5 |6 v; e9 W0 I+ I; nMaximum Frame-Average Light Level : 180 cd/m29 Z% O, H5 `- o: n( V

5 E9 {1 c4 q* ^, I! dAudio
) n0 [4 Z1 ]# P4 i5 X2 k- HID : 2
: [! n0 b2 K& E1 ^( y7 j9 f, zFormat : E-AC-3 JOC
# d3 }0 M0 l6 r8 QFormat/Info : Enhanced AC-3 with Joint Object Coding
, a& i" o% t% ECommercial name : Dolby Digital Plus with Dolby Atmos
) [5 x8 G% x: J0 gCodec ID : A_EAC3' w9 Y* S& B  [$ a* V  v
Duration : 1 h 35 min
, m. \* |- Z6 w' yBit rate mode : Constant( f$ s9 u2 s6 ^$ [& f# g7 n
Bit rate : 768 kb/s
% d$ r& j  o* x/ QChannel(s) : 6 channels
" j! @+ w; _& y1 P. l. M+ I7 sChannel layout : L R C LFE Ls Rs1 U: h! X5 h" i1 M( c! B
Sampling rate : 48.0 kHz
: l1 k- T! r% jFrame rate : 31.250 FPS (1536 SPF)
2 s1 Y: H7 n5 n2 ?Compression mode : Lossy
7 p4 |& K, D( T3 hStream size : 524 MiB (5%)
5 o- D) v4 @3 |Language : English
/ X" n3 }) M% l, w* {6 {Service kind : Complete Main( U$ W. ?4 n/ F1 g+ w$ n
Default : Yes
% _0 i1 a/ e/ M3 qForced : No8 y) s% ]! V/ l
Complexity index : 166 x& s: |( m# D; [5 }; z
Number of dynamic objects : 15- V; m8 k% i5 s( ~* I
Bed channel count : 1 channel; _3 r4 R/ _7 X2 |
Bed channel configuration : LFE

8 w& O/ O. s+ Z9 j, t7 i

% Y4 N1 X# @0 ]! v# w+ v. v3 }* J5 c* u& r3 K: F
蓝光高清网提示您  点击下方附件名称  马上开始下载
0 D% q" b( l) q8 X% G0 L% \* _3 T) F; z$ {0 e
! F8 ~/ r$ C4 K
海绵宝宝3 / 海绵宝宝:奔跑吧(台) / 海绵宝宝:急急脚走佬(港) / SpongeBob Squarepants 3 / Spongebob Movie 3 / It's a Wonderful Sponge/海绵宝宝:营救大冒险4k The.SpongeBob.Movie.Sponge.on.the.Run.2020.2160p.NF.WEB-DL.x265.10bit.HDR.DDP5.1.Atmos-4k电影下载
) m5 r6 a8 D' X# P9 Z, g! P1 E. ]5 G
海绵宝宝:营救大冒险4k The.SpongeBob.Movie.Sponge.on.the.Run.2020.2160p.NF.WEB-DL.x265.10bit.HDR.DDP5.1.Atmos【9.86 GB】3 e0 m0 F& r" x$ t& O
海绵宝宝:营救大冒险4k The.SpongeBob.Movie.Sponge.on.the.Run.2020.2160p.N.torren.torrent (文件大小:49.93 KB)
0 x: e$ P) i" C) D/ O9 ]) M, D
海绵宝宝:营救大冒险中文字幕下载) X) G9 K- w" e+ W0 h0 K: L0 M9 I8 h
海綿寶寶:奔跑吧 The.SpongeBob.Movie.Sponge.on.the.Run.2020 Subs.rar (文件大小:1.12 MB)
加入蓝光高清网VIP会员  无限制下载本站所有资源---点这里

资源下载、资源播放、字幕使用、无法下载等常见问题---点这里
回复

使用道具 举报

 

精彩评论4

正序浏览
喀喀 发表于 2020-11-7 19:16:19 | 显示全部楼层
 
+ x$ d6 S5 _3 \5 T, s" }, U4 b$ O9 ~
祝蓝光高清网越办越红火。
回复

使用道具 举报

 
喀喀 发表于 2020-11-8 12:25:29 | 显示全部楼层
 
5 y. H* s" q* m9 D1 P; l
感谢蓝光高清网提供的优质资源,希望网站越办越好。
回复

使用道具 举报

 
fafa000hao 发表于 2020-11-11 14:26:26 | 显示全部楼层
 
) [7 O% z7 {, f. f0 E; H5 m+ h
非常感谢蓝光高清网给大家的享乐4k,祝蓝光高清网越办越好!
回复

使用道具 举报

 
Dizbell-Jessica 发表于 2020-11-25 17:22:38 | 显示全部楼层
 
有中文配音版的吗?给孩子看
回复

使用道具 举报

 
您需要登录后才可以回帖 登录 | 立即注册

本版积分规则

0关注

2粉丝

93704帖子

  • 版块推荐
  • 百宝箱

电影推荐

更多+

热门电影

更多+

下载APP 签到更便捷

官方微信

手机APP

蓝光高清网

专注4k电影、4k视频、VR视频、高清电影、蓝光原盘资源

本站内容部分由用户自主分享和转载自互联网,转载目的在于传递更多信息,并不代表本网赞同其观点和对其真实性负责。

如有侵权、违反国家法律政策行为,请联系我们,我们会第一时间及时清除和处理!

举报反馈邮箱:lanniao@1080pro.net

Copyright   ©2019-2020  蓝光高清网    |网站地图