开通会员
全站资源畅享下载
4k原盘抢先下载
免高清币下载
会员用户组特权
开通会员
上传
收藏
首页
开启左侧

[4K 英剧] 王冠 第四季4k The.Crown.S04.2160p.NF.WEB-DL.x265.10bit.HDR.DDP5.1-4k美剧下载—58.43 GB

[复制链接]
蓝鸟 发表于 2020-11-19 11:35:24 | 显示全部楼层 |阅读模式 打印 上一主题 下一主题

王冠(上映日期:2021)4K(3840x2160)

简介  本季涵盖1977年到1990年的事件,撒切尔夫人和戴安娜正式登场。
  1970年代来到尾声,英女王伊丽莎白 (Olivia Colman)一家煞费苦心为年届30依旧未婚的查理斯王子 (Josh O’Connor)寻找一位得体的新娘,以确保王位后继有人;英国上下则因为首位女首相玛格丽特·撒切尔 (Gillian Anderson)提倡极具争议的政策而动荡不安。随着撒切尔夫人带领英国参战福克兰战争,继而引起英联邦之间的纷争,她和英女王的关系势如水火。此时查理斯王子与青春正盛的戴安娜·斯宾塞女爵 (Emma Corrin)童话般的爱情正好为英国人民带来一丝安慰,使他们团结起来。然而,宫廷之内,整个王室却日趋决裂。
导演本·卡隆 / 杰西卡·霍布斯 / 朱里安·杰拉德 / 保罗·惠廷顿
主演奥利维娅·科尔曼 / 海伦娜·伯翰·卡特 / 吉莲·安德森 / 乔什·奥康纳 / 艾玛·科林
类型剧情 历史 
地区英国
声道5.1声道
编码其他DD
状态第四季(完结)
评分豆瓣9.3分
 

加入蓝光高清网,轻松下载最新4k资源

您需要 登录 才可以下载或查看,没有帐号?立即注册

x
影片参数
王冠 第四季4k The.Crown.S04.2160p.NF.WEB-DL.x265.10bit.HDR.DDP5.1-4k美剧信息
Video
ID : 1
Format : HEVC
Format/Info : High Efficiency Video Coding
Format profile : Main 10@L5@Main
HDR format : SMPTE ST 2086, HDR10 compatible
Codec ID : V_MPEGH/ISO/HEVC
Duration : 58 min 51 s
Bit rate : 15.2 Mb/s
Width : 3 840 pixels
Height : 2 160 pixels
Display aspect ratio : 16:9
Frame rate mode : Constant
Frame rate : 25.000 FPS
Color space : YUV
Chroma subsampling : 4:2:0 (Type 2)
Bit depth : 10 bits
Bits/(Pixel*Frame) : 0.073
Stream size : 6.26 GiB (96%)
Default : Yes
Forced : No
Color range : Limited
Color primaries : BT.2020
Transfer characteristics : PQ
Matrix coefficients : BT.2020 non-constant
Mastering display color primaries : Display P3
Mastering display luminance : min: 0.0001 cd/m2, max: 1000 cd/m2
Maximum Content Light Level : 1647 cd/m2
Maximum Frame-Average Light Level : 150 cd/m2


Audio
ID : 2
Format : E-AC-3
Format/Info : Enhanced AC-3
Commercial name : Dolby Digital Plus
Codec ID : A_EAC3
Duration : 1 h 0 min
Bit rate mode : Constant
Bit rate : 640 kb/s
Channel(s) : 6 channels
Channel layout : L R C LFE Ls Rs
Sampling rate : 48.0 kHz
Frame rate : 31.250 FPS (1536 SPF)
Compression mode : Lossy
Stream size : 277 MiB (4%)
Language : English
Service kind : Complete Main
Default : Yes
Forced : No

蓝光高清网提示您  点击下方附件名称  马上开始下载

王冠 第四季4k The.Crown.S04.2160p.NF.WEB-DL.x265.10bit.HDR.DDP5.1-4k美剧下载


王冠 第四季4k The.Crown.S04.2160p.NF.WEB-DL.x265.10bit.HDR.DDP5.1【58.43 GB】

王冠 第四季 The.Crown.S04.2160p.NF.WEB-DL.x265.10bit.HDR.DDP5.1-ABBiE[rartv].torrent (文件大小:147.44 KB)


加入蓝光高清网VIP会员  无限制下载本站所有资源---点这里

资源下载、资源播放、字幕使用、无法下载等常见问题---点这里
回复

使用道具 举报

 

精彩评论1

正序浏览
gdlmxia 发表于 2020-11-29 20:35:16 | 显示全部楼层
 
太好啦&萬分感謝版主的無私發佈分享%
回复

使用道具 举报

 
您需要登录后才可以回帖 登录 | 立即注册

本版积分规则

0关注

2粉丝

93404帖子

  • 版块推荐
  • 百宝箱

电影推荐

更多+

热门电影

更多+

关注我们:微信服务号

官方微信

手机版

蓝光高清网

专注4k电影、4k视频、VR视频、高清电影、蓝光原盘资源

本站内容部分由用户自主分享和转载自互联网,转载目的在于传递更多信息,并不代表本网赞同其观点和对其真实性负责。

如有侵权、违反国家法律政策行为,请联系我们,我们会第一时间及时清除和处理!

举报反馈邮箱:lanniao@1080pro.net

Copyright   ©2019-2020  蓝光高清网    |网站地图