开通会员
全站资源畅享下载
4k原盘抢先下载
免高清币下载
会员用户组特权
开通会员
上传
收藏
首页
开启左侧

[其他电视剧] 无丁之地 4k No.Mans.Land.2020.S01.FRENCH.ENSUBBED.2160p.HULU.WEBRip.DDP5.1.x265-4k美剧—33.46 GB

[复制链接]
蓝鸟 发表于 6 天前 | 显示全部楼层 |阅读模式 打印 上一主题 下一主题

无丁之地(上映日期:2020)4K(3840x2160)

简介  詹姆斯·鲍弗将主演以叙利亚内战为背景的Hulu新剧《新月沃土》(Fertile Crescent,暂译)。本剧卡司还有费利克斯·莫阿蒂、梅兰尼·蒂埃里等。剧集将以独特视角探索关于叙利亚事件及其对世界的影响。鲍弗饰演的法国男子安东尼在寻找他疏远的、被认为已经死去的妹妹的过程中,最终加入了一支由库尔德女战士组成的部队。
导演奥戴德·拉斯金
主演詹姆斯·弗洛伊德 / 乔·本·艾耶德 / 朱莉娅·福雷 / 费利克斯·莫阿蒂 / 詹姆斯·鲍弗
类型剧情 惊悚 战争 
地区其他
声道5.1声道
编码其他DD
状态第一季(完结)
评分豆瓣8.4分
 

加入蓝光高清网,轻松下载最新4k资源

您需要 登录 才可以下载或查看,没有帐号?立即注册

x
影片参数
新月沃土 / Fertile Crescent / 无人之地/无丁之地4k No.Mans.Land.2020.S01.FRENCH.ENSUBBED.2160p.HULU.WEBRip.DDP5.1.x265-4k美剧信息
Video
ID : 1
Format : HEVC
Format/Info : High Efficiency Video Coding
Format profile : Main 10@L5.1@Main
Codec ID : V_MPEGH/ISO/HEVC
Duration : 52 min 19 s
Bit rate : 13.8 Mb/s
Width : 3 840 pixels
Height : 2 160 pixels
Display aspect ratio : 16:9
Frame rate mode : Constant
Frame rate : 25.000 FPS
Color space : YUV
Chroma subsampling : 4:2:0
Bit depth : 10 bits
Bits/(Pixel*Frame) : 0.066
Stream size : 5.03 GiB (98%)
Default : Yes
Forced : No


Audio
ID : 2
Format : E-AC-3
Format/Info : Enhanced AC-3
Commercial name : Dolby Digital Plus
Codec ID : A_EAC3
Duration : 52 min 19 s
Bit rate mode : Constant
Bit rate : 256 kb/s
Channel(s) : 6 channels
Channel layout : L R C LFE Ls Rs
Sampling rate : 48.0 kHz
Frame rate : 31.250 FPS (1536 SPF)
Compression mode : Lossy
Stream size : 95.8 MiB (2%)
Language : English
Service kind : Complete Main
Default : Yes
Forced : No


Text #1
ID : 3
Format : UTF-8
Codec ID : S_TEXT/UTF8
Codec ID/Info : UTF-8 Plain Text
Duration : 51 min 43 s
Bit rate : 50 b/s
Count of elements : 607
Stream size : 19.2 KiB (0%)
Title : SDH
Language : English
Default : No
Forced : No


Text #2
ID : 4
Format : UTF-8
Codec ID : S_TEXT/UTF8
Codec ID/Info : UTF-8 Plain Text
Duration : 51 min 52 s
Bit rate : 66 b/s
Count of elements : 767
Stream size : 25.4 KiB (0%)
Language : Spanish
Default : No
Forced : No


Menu
00:06:26.005 : en:Chapter 01
00:11:47.016 : en:Chapter 02
00:31:58.003 : en:Chapter 03
00:36:59.006 : en:Chapter 04
00:51:24.022 : en:Credits


蓝光高清网提示您  点击下方附件名称  马上开始下载


新月沃土 / Fertile Crescent / 无人之地/无丁之地4k No.Mans.Land.2020.S01.FRENCH.ENSUBBED.2160p.HULU.WEBRip.DDP5.1.x265-4k美剧下载


无丁之地4k No.Mans.Land.2020.S01.FRENCH.ENSUBBED.2160p.HULU.WEBRip.DDP5.1.x265【33.46 GB】

无丁之地4k No.Mans.Land.2020.S01.FRENCH.ENSUBBED.2160p.HULU.WEBRip.DDP5.1.torrent (84.86 KB, 下载次数: 0)



加入蓝光高清网VIP会员  无限制下载本站所有资源---点这里

资源下载、资源播放、字幕使用、无法下载等常见问题---点这里
回复

使用道具 举报

 
您需要登录后才可以回帖 登录 | 立即注册

本版积分规则

0关注

1粉丝

91146帖子

  • 版块推荐
  • 百宝箱

电影推荐

更多+

热门电影

更多+

关注我们:微信服务号

官方微信

手机版

蓝光高清网

专注4k电影、4k视频、VR视频、高清电影、蓝光原盘资源

本站内容部分由用户自主分享和转载自互联网,转载目的在于传递更多信息,并不代表本网赞同其观点和对其真实性负责。

如有侵权、违反国家法律政策行为,请联系我们,我们会第一时间及时清除和处理!

举报反馈邮箱:lanniao@1080pro.net

Copyright   ©2019-2020  蓝光高清网    |网站地图