开通会员
全站资源畅享下载
4k原盘抢先下载
免高清币下载
会员用户组特权
开通会员
上传
收藏
首页
开启左侧

蝙蝠侠与比尔 4k Batman.and.Bill.2017.2160p.电影下载—8.96 GB

[复制链接]
蓝鸟 发表于 4 天前 | 显示全部楼层 |阅读模式 打印 上一主题 下一主题

蝙蝠侠与比尔(2017年上映)

主演Thomas Andrae / Travis Langley / Marc Tyler Nobleman / Roy Thomas / Michael Uslan
导演Don Argott / Sheena M. Joyce
类型记录 动画 悬疑 
地区美国 
片长93分钟
画质4K 原盘
音轨Dolby TrueHD 5.1 Dolby Atmos 
评分豆瓣8.9分
电影【蝙蝠侠与比尔】原盘信息
 

加入蓝光高清网,轻松下载最新4k资源

您需要 登录 才可以下载或查看,没有帐号?立即注册

x
简       介
8 Q# ~+ w, r+ w: c
& h4 x6 J) x) j  H( c. @& l  大家都知道DC漫畫裡,布魯斯韋恩是蝙蝠俠的真實身份,但他的真實創造者始終是個真正的謎。所有人都認為是鮑勃凱恩創造了蝙蝠俠,但還有另一位蝙蝠俠創作者的功績被歷史給埋沒。他並沒有戴著面具和斗篷,身分卻比蝙蝠俠還要神秘。- g9 I4 ^5 I- i) [- e2 r
  E( A. v- o6 }. r
' h3 D- h9 ^  k- ~. N- d/ v+ P
影片参数
% [3 j: B) F* u3 C3 n
蝙蝠俠:無名之父(台)/蝙蝠侠与比尔4k Batman.and.Bill.2017.2160p.HULU.WEBRip.x265.10bit.SDR.DTS-HD.MA.5.1电影信息
& X7 M; S4 @) }, c# FVideo7 }3 V, J# O; ^" B
ID : 1
+ r" G. U! P+ Y1 B! `Format : HEVC
( S5 i$ b$ D; iFormat/Info : High Efficiency Video Coding( R  o0 }' c7 ?' Z/ |/ e
Format profile : Main 10@L5.1@Main
, J. Q8 ^- h- j# F' P2 W( MCodec ID : V_MPEGH/ISO/HEVC
" Q0 A/ a; [! A4 l3 h& NDuration : 1 h 32 min$ Z/ F! S- j) S7 b0 H
Bit rate : 12.0 Mb/s
0 d% D3 E! @* t( v. j! GWidth : 3 840 pixels* ^% f/ S+ V0 Q. B5 w* s, J
Height : 2 160 pixels
4 S/ H/ \- L' F0 y  [Display aspect ratio : 16:9
9 D% H/ ~9 z" y! zFrame rate mode : Constant
8 V" l$ A4 h6 Q2 SFrame rate : 23.976 (24000/1001) FPS
. l5 `/ @' }- Z7 o& NColor space : YUV' n( @# W. k$ P8 `
Chroma subsampling : 4:2:0
. `# D. r2 \( h# T, ^% P, ^Bit depth : 10 bits
+ w, N/ u2 T- T/ ]Bits/(Pixel*Frame) : 0.061
8 E* E! x4 N' Z  u  I/ V8 qStream size : 7.82 GiB (87%)0 a4 G3 Q5 C) C
Default : Yes) K" r7 l; c( e' u5 n8 H
Forced : No
# U/ w& e: n: m5 L- I  T9 D& |5 h9 C% @) Q4 t- N2 Y
7 n+ h0 X# l- n* ~0 `) S
Audio$ I- e. f& s1 E# o0 _0 s$ S4 E
ID : 2
3 ~: D3 c. `' y1 O- D* NFormat : DTS XLL
/ Z, `% H+ C' m9 X. S8 s7 dFormat/Info : Digital Theater Systems5 O7 Q0 u  g5 w# ]8 X4 x7 B2 E+ _
Commercial name : DTS-HD Master Audio: ^: W9 T1 v! C# V4 B
Codec ID : A_DTS
/ Z. Y5 x: E3 G. ^: W7 p, qDuration : 1 h 32 min
# }# G- }& s6 I% B8 FBit rate mode : Variable) ^5 W* ?, p: ^% a$ B9 Z
Bit rate : 1 747 kb/s
( p1 F8 l' n$ Z( b1 ^Channel(s) : 6 channels+ d" F% q& i" i; Q
Channel layout : C L R Ls Rs LFE
0 l$ L- P6 }: I" k- p" kSampling rate : 48.0 kHz9 y+ b7 T% a% O' K
Frame rate : 93.750 FPS (512 SPF)
6 L: b0 H9 W6 m/ E5 q! e# ^  J* lBit depth : 16 bits
% Z* x7 t1 H. w  w: tCompression mode : Lossless7 C9 l: K, j8 H$ U
Delay relative to video : 89 ms
7 F0 p3 a, u+ x: YStream size : 1.13 GiB (13%), {" y2 g% F& @4 p8 F
Default : Yes4 C; b6 ?$ D8 [2 s5 g$ B. C
Forced : No
! W9 e# \* G: r( u( [% D9 Z! o5 n8 h( _' l9 _/ P) ^  E

. S: _; A% ~1 C! Z1 l7 Y" UText #1; }5 Y0 I; l# k. V. _
ID : 33 ?% g5 `8 {1 B/ [/ r- q
Format : UTF-8
: L# F7 M0 t/ i* g' W9 w$ ]4 LCodec ID : S_TEXT/UTF8
2 Z7 J% v7 t( a4 n  ^Codec ID/Info : UTF-8 Plain Text; i4 L0 Q3 {4 z* O* q9 B  |/ A
Duration : 1 h 32 min0 \8 }# H+ m8 S4 I
Bit rate : 105 b/s: m9 \! D$ H; @2 U8 b
Count of elements : 2152
1 t( t! a+ z" Q1 n! h5 C- fStream size : 71.9 KiB (0%)# f9 a9 [8 J8 k: b' Q# [+ _7 f
Language : English
0 ?3 P- `, T' K0 \1 ~Default : No9 @6 o8 d4 ^0 n& l+ D( L
Forced : No
1 j2 b: P" D! D* k5 a% k* C# j0 l" }
5 z! |6 ~# n& ]6 U: u) c$ n! d6 @
5 ]8 S; I3 y% S
Text #2
! f1 g# g4 t1 u/ E- y1 T. uID : 48 g# _% X, d( W% v! v/ H
Format : UTF-8( ]8 ?! L6 A# F0 L- q
Codec ID : S_TEXT/UTF8
  M3 I8 \: }5 b( w. @+ l; VCodec ID/Info : UTF-8 Plain Text; x$ Q; h* _( Z+ J% y# r
Duration : 1 h 32 min; [, e0 o8 ~# N5 `# {$ T
Bit rate : 122 b/s
2 q4 g; d7 ]* kCount of elements : 2238- o) Q; o% ^: |' a
Stream size : 83.6 KiB (0%), p4 v' B7 {) q9 L
Language : Spanish% H4 R8 a, R/ B9 S
Default : No
$ @" S& @4 V1 i$ O7 c7 ^/ i- ^  aForced : No
5 J! y: L  ?' Y4 ?2 Z6 E9 T& a7 K
蓝光高清网提示您  点击下方附件名称  马上开始下载9 o* e- }/ i6 z5 \, r: e5 B
: V" V3 b. W7 x  H

8 X3 R% Q. ^, x, s8 @+ `蝙蝠俠:無名之父(台)/蝙蝠侠与比尔4k Batman.and.Bill.2017.2160p.HULU.WEBRip.x265.10bit.SDR.DTS-HD.MA.5.1电影下载
* I+ c( t) Y5 k  m4 i% d! s3 K  ?5 N# Z2 O
蝙蝠侠与比尔4k Batman.and.Bill.2017.2160p.HULU.WEBRip.x265.10bit.SDR.DTS-HD.MA.5.1【8.96 GB】9 i+ ^8 d7 ]; m2 n" I
蝙蝠侠与比尔4k Batman.and.Bill.2017.2160p.HULU.WEBRip.x265.10bit.SDR.DTS-HD.MA.5.torrent (45.36 KB, 下载次数: 0)
7 f- b7 Y' v: M4 I- a
* s% k9 E5 Q; T0 _$ E
加入蓝光高清网VIP会员  无限制下载本站所有资源---点这里

资源下载、资源播放、字幕使用、无法下载等常见问题---点这里
回复

使用道具 举报

 

精彩评论1

正序浏览
gdlmxia 发表于 4 天前 | 显示全部楼层
 
太好啦&萬分感謝版主的無私發佈分享%
回复

使用道具 举报

 
您需要登录后才可以回帖 登录 | 立即注册

本版积分规则

0关注

1粉丝

91146帖子

  • 版块推荐
  • 百宝箱

电影推荐

更多+

热门电影

更多+

关注我们:微信服务号

官方微信

手机版

蓝光高清网

专注4k电影、4k视频、VR视频、高清电影、蓝光原盘资源

本站内容部分由用户自主分享和转载自互联网,转载目的在于传递更多信息,并不代表本网赞同其观点和对其真实性负责。

如有侵权、违反国家法律政策行为,请联系我们,我们会第一时间及时清除和处理!

举报反馈邮箱:lanniao@1080pro.net

Copyright   ©2019-2020  蓝光高清网    |网站地图