开通会员
全站资源畅享下载
4k原盘抢先下载
免高清币下载
会员用户组特权
开通会员
上传
收藏
首页
开启左侧

[4K高清美剧] 疯狂动画 第一季4k Animaniacs.2020.S01.2160p.HULU.WEBRip.DDP5.1.x265-美剧下载—36.33 GB

[复制链接]
蓝鸟 发表于 4 天前 | 显示全部楼层 |阅读模式 打印 上一主题 下一主题

疯狂动画(上映日期:2020)4K(3840x2160)

简介They’re back! The Warner brothers, Yakko and Wakko, and the Warner sister Dot, have a great time wreaking havoc and mayhem in the lives of everyone they meet. After returning to their beloved home, the Warner Bros. water tower, the siblings waste no time in causing chaos and comic confusion as they run loose through the studio, turning the world into their personal playground. Joining Yakko, Wakko and Dot, fan-favorite characters Pinky and the Brain also return to continue their quest for world domination.
导演Kathleen Chen / Lucas Crandles / Jess Lacher
主演莫里斯·拉马奇 / 特蕾丝·麦克尼尔 / 泰瑞·克鲁斯 / 劳拉·穆尼 / 崔·帕克
类型喜剧 动画 
地区美国
声道5.1声道
编码其他DD
状态第一季(完结)
评分豆瓣8.2分
 

加入蓝光高清网,轻松下载最新4k资源

您需要 登录 才可以下载或查看,没有帐号?立即注册

x
影片参数
狂欢三宝/疯狂动画 第一季4k Animaniacs.2020.S01.2160p.HULU.WEBRip.DDP5.1.x265-美剧信息
Video
ID : 1
Format : HEVC
Format/Info : High Efficiency Video Coding
Format profile : Main 10@L5.1@Main
Codec ID : V_MPEGH/ISO/HEVC
Duration : 27 min 2 s
Bit rate : 15.5 Mb/s
Width : 3 840 pixels
Height : 2 160 pixels
Display aspect ratio : 16:9
Frame rate mode : Constant
Frame rate : 23.976 (24000/1001) FPS
Color space : YUV
Chroma subsampling : 4:2:0
Bit depth : 10 bits
Bits/(Pixel*Frame) : 0.078
Stream size : 2.93 GiB (96%)
Default : Yes
Forced : No


Audio
ID : 2
Format : E-AC-3
Format/Info : Enhanced AC-3
Commercial name : Dolby Digital Plus
Codec ID : A_EAC3
Duration : 27 min 2 s
Bit rate mode : Constant
Bit rate : 256 kb/s
Channel(s) : 6 channels
Channel layout : L R C LFE Ls Rs
Sampling rate : 48.0 kHz
Frame rate : 31.250 FPS (1536 SPF)
Compression mode : Lossy
Stream size : 49.5 MiB (2%)
Language : English
Service kind : Complete Main
Default : Yes
Forced : No


Text #1
ID : 3
Format : UTF-8
Codec ID : S_TEXT/UTF8
Codec ID/Info : UTF-8 Plain Text
Title : English
Language : English
Default : No
Forced : No


Text #2
ID : 4
Format : UTF-8
Codec ID : S_TEXT/UTF8
Codec ID/Info : UTF-8 Plain Text
Title : Spanish
Language : Spanish
Default : No
Forced : No

蓝光高清网提示您  点击下方附件名称  马上开始下载

狂欢三宝/疯狂动画 第一季4k Animaniacs.2020.S01.2160p.HULU.WEBRip.DDP5.1.x265-美剧下载


疯狂动画 第一季4k Animaniacs.2020.S01.2160p.HULU.WEBRip.DDP5.1.x265【36.33 GB】

疯狂动画 第一季4k Animaniacs.2020.S01.2160p.HULU.WEBRip.DDP5.1.x265-GGWP[.torrent (92.27 KB, 下载次数: 1)


加入蓝光高清网VIP会员  无限制下载本站所有资源---点这里

资源下载、资源播放、字幕使用、无法下载等常见问题---点这里
回复

使用道具 举报

 
您需要登录后才可以回帖 登录 | 立即注册

本版积分规则

0关注

1粉丝

91146帖子

  • 版块推荐
  • 百宝箱

电影推荐

更多+

热门电影

更多+

关注我们:微信服务号

官方微信

手机版

蓝光高清网

专注4k电影、4k视频、VR视频、高清电影、蓝光原盘资源

本站内容部分由用户自主分享和转载自互联网,转载目的在于传递更多信息,并不代表本网赞同其观点和对其真实性负责。

如有侵权、违反国家法律政策行为,请联系我们,我们会第一时间及时清除和处理!

举报反馈邮箱:lanniao@1080pro.net

Copyright   ©2019-2020  蓝光高清网    |网站地图