开通会员
全站资源畅享下载
4k原盘抢先下载
免高清币下载
会员用户组特权
开通会员
上传
收藏
首页
开启左侧

姜子牙4K.Legend.of.Deification.2020.WEB-DL.2160p.杜比视界电影下载—13.2 GB

[复制链接]
蓝鸟 发表于 2020-11-22 13:46:25 | 显示全部楼层 |阅读模式 打印 上一主题 下一主题

姜子牙(2020年上映)

主演郑希 / 杨凝 / 图特哈蒙 / 阎么么 / 季冠霖
导演程腾 / 李炜
类型剧情 动画 奇幻 
地区中国大陆 
片长110分钟
画质4K 原盘
音轨Dolby TrueHD 5.1 
评分豆瓣6.9分
电影【姜子牙】原盘信息
 

加入蓝光高清网,轻松下载最新4k资源

您需要 登录 才可以下载或查看,没有帐号?立即注册

x
本帖最后由 蓝鸟 于 2020-11-22 13:57 编辑 8 q: T- c5 @% P! ^7 Z9 W0 r1 p$ M
# x- ~/ g; M" x0 E& S' ?
简       介! f7 B, j9 l( K# p: N( p% W
! @  I& x& e8 C- J9 F* w& t
  故事发生于封神大战后。姜子牙率领众神伐纣,赢得封神大战胜利,以为可以唤回世间安宁。然而,一切并未结束。一个偶然,姜子牙发现了原来“封神大战”之下酝酿着更大的阴谋。姜子牙开始踏上探寻真相的旅途.....  x$ h  Q, E1 S/ Q

" h6 w, i1 p7 p) P2 z& Y% d

6 |' z# d: [8 K7 F3 ?! @* |影片参数
  p1 i! r) C) }
Legend of Deification/姜子牙4k.Legend.of.Deification.2020.WEB-DL.2160p.H265.DoblyVision.DDP5.1-杜比视界4k电影信息+ W* z0 _( q- H1 k/ Y# @
General
& \1 i4 u* v4 r: ]Complete name                  :Z\Hao4k\姜子牙4k.Legend.of.Deification.2020.WEB-DL.2160p.H265.DoblyVision.DDP5.1-HAO4K\姜子牙4k.Legend.of.Deification.2020.WEB-DL.2160p.H265.DoblyVision.DDP5.1-HAO4K.mp47 _1 k$ [, |1 e& ?9 R' W
Format                         : MPEG-4, R; O; k- g7 D) m9 k3 ^/ k
Format profile                 : Base Media / Version 26 e  @0 {% V, s! P
Codec ID                       : mp42 (mp42/dby1/isom), F% A: |% u/ F8 k, }
File size                      : 13.3 GiB
$ Z" I! n. P' \" UDuration                       : 1 h 49 min& G! j) q" U( L
Overall bit rate               : 17.3 Mb/s
% Z( T' g% ~% r8 g/ ?: s" l. IEncoded date                   : UTC 2020-11-19 09:37:22
$ j4 i& X7 I8 c7 D5 A* STagged date                    : UTC 2020-11-19 09:37:225 _$ j# Z% S+ l/ O4 @
! k9 I' k  V! m  ~* o! i

4 {1 e5 P# v; X6 S! e+ k( ~% kVideo
; Q# X  ]* N4 CID                             : 1+ c- K7 h8 ?( z+ i0 B
Format                         : HEVC
; g% c1 R( O/ m& e$ i  Z; J; {Format/Info                    : High Efficiency Video Coding. D, D& {( v) F% H2 N! G+ n1 [
Format profile                 : Main 10@L5@High( x; D! T' \# R9 s
HDR format                     : Dolby Vision, Version 1.0, dvhe.05.06, BL+RPU
  u  j: Y# O* h: g* X+ `Codec ID                       : dvhe
; ^( f) [) B8 ]Codec ID/Info                  : High Efficiency Video Coding with Dolby Vision
" T, O( U7 k, ]# ?$ o  ?  d, g# ~Duration                       : 1 h 49 min
" q. ]+ _) r7 I! w( OBit rate                       : 16.8 Mb/s5 ?+ i& m4 A# @: m* u& u9 G- i
Width                          : 3 824 pixels7 G" z' C' y; A
Height                         : 1 592 pixels
: R' q: ]8 G  ^5 K( k/ }Display aspect ratio           : 2.40:1" P4 ?6 o+ N" n$ `, }+ D6 l, _3 ~/ e
Frame rate mode                : Constant
$ i0 n3 W4 S' j# ^Frame rate                     : 24.000 FPS1 V7 z' `- @8 E
Color space                    : YUV9 }3 `5 T9 g/ B7 c/ I+ s( v/ h
Chroma subsampling             : 4:2:08 q! r* e- C' ]7 \
Bit depth                      : 10 bits
" L) k% k- ~( S3 z& w" T4 b  BBits/(Pixel*Frame)             : 0.1157 a- G) c1 G8 |/ S* e$ ]8 g
Stream size                    : 12.9 GiB (97%)
& @8 R' \; J4 U. |Default                        : Yes2 u* U: h, }. N
Alternate group                : 1) K, b$ x/ x5 r4 C  ?! R
Encoded date                   : UTC 2020-11-19 09:37:222 o4 m% u2 N8 H3 S8 e
Tagged date                    : UTC 2020-11-19 09:37:224 i0 }- U: }3 o( Q7 G9 N* i7 S8 j
Codec configuration box        : hvcC+dvcC
' n, N% a7 r  g- S( Y8 J7 h9 f! E  T( A( T  i
  s7 |7 a6 ], H+ m/ i2 I
Audio
& H! W  W- y8 o, `. dID                             : 2
2 K' t: Z5 s0 U& P- bFormat                         : E-AC-3 JOC  X& C# e3 S7 j9 n" l
Format/Info                    : Enhanced AC-3 with Joint Object Coding# s0 @: S) \6 J5 M: L
Commercial name                : Dolby Digital Plus with Dolby Atmos
! ~% E, I6 x$ P# ^Codec ID                       : ec-3
; n8 r; \* S: W5 e4 S  v* EDuration                       : 1 h 49 min' G0 g# l: A, B6 x  Z3 u& X
Bit rate mode                  : Constant
5 c; n3 C1 O6 t" u0 }* cBit rate                       : 448 kb/s
/ g8 x( y: B* G% iChannel(s)                     : 6 channels8 S6 _* @& c) W  }! S3 @! c
Channel layout                 : L R C LFE Ls Rs0 E! I( U+ l5 y; J
Sampling rate                  : 48.0 kHz( O% N) d! ?6 t  Y0 V+ |9 x
Frame rate                     : 31.250 FPS (1536 SPF)
- _3 j. K& g( e0 A, b  RCompression mode               : Lossy
' q+ Z; @( F& C% eStream size                    : 352 MiB (3%)
; x- S$ B* o6 Q4 NService kind                   : Complete Main2 _  p; n4 N, o" O4 p: z$ U. @4 ~
Default                        : Yes8 ?+ B: e4 m& ^; [
Alternate group                : 2" _/ i* Z: L1 x; c1 i# M  u1 ]% J
Encoded date                   : UTC 2020-11-19 09:37:22
  {/ f% G; m8 w/ a+ D3 S2 NTagged date                    : UTC 2020-11-19 09:37:22( ~/ y- M2 V3 G& o
Complexity index               : 16
6 }. N' T( W; l' Y/ bNumber of dynamic objects      : 157 f( D2 j4 b$ x; Y- K0 U
Bed channel count              : 1 channel
2 y6 j" r; p$ S* X( [Bed channel configuration      : LFE

7 [7 F2 U: q" s4 f
6 C8 b2 x  [( o' e( o6 X

9 j6 b/ q- n; |. ^' R5 M7 \+ R" n6 [蓝光高清网提示您  点击下方附件名称  马上开始下载6 K3 m! J( u* {7 [+ l% D
$ i% e7 e" v' x1 x) K% y

- F9 t9 X3 C6 f$ N, Q! OLegend of Deification/姜子牙4k.Legend.of.Deification.2020.WEB-DL.2160p.H265.DoblyVision.DDP5.1-杜比视界4K电影下载
' H* z9 i6 ?* ?, z- R' I% [+ C
- Y' L! }! i' _3 u姜子牙4k.Legend.of.Deification.2020.WEB-DL.2160p.H265.DoblyVision.DDP5.1【4K 13.2 GB 】
2 }+ u8 L4 y4 M$ |8 a9 w$ d' u9 I 姜子牙4k.Legend.of.Deification.2020.WEB-DL.2160p.H265.DoblyVision.DDP5.1-Hao4K.torrent (文件大小:41.43 KB)
加入蓝光高清网VIP会员  无限制下载本站所有资源---点这里

资源下载、资源播放、字幕使用、无法下载等常见问题---点这里
回复

使用道具 举报

 

精彩评论5

正序浏览
gdlmxia 发表于 2020-11-22 18:30:38 | 显示全部楼层
 
太好啦&萬分感謝版主的無私發佈分享%
回复

使用道具 举报

 
X—战士 发表于 2020-11-25 21:28:55 | 显示全部楼层
 
楼主无私分享
回复

使用道具 举报

 
刘7593 发表于 2020-11-26 07:37:19 来自手机 | 显示全部楼层
 
只有声音没有画面呀?
回复

使用道具 举报

 
金鱼射手 发表于 2020-11-26 22:01:30 | 显示全部楼层
 
4 ~* m: o9 w0 \+ ]* R# u
非常感谢蓝光高清网给大家的享乐4k,祝蓝光高清网越办越好!
回复

使用道具 举报

 
黄骅达力普钢厂 发表于 2020-11-28 17:18:30 | 显示全部楼层
 
非常感谢蓝光高清网给大家的享乐4k,祝蓝光高清网越办越好!
回复

使用道具 举报

 
您需要登录后才可以回帖 登录 | 立即注册

本版积分规则

0关注

2粉丝

93404帖子

  • 版块推荐
  • 百宝箱

电影推荐

更多+

热门电影

更多+

关注我们:微信服务号

官方微信

手机版

蓝光高清网

专注4k电影、4k视频、VR视频、高清电影、蓝光原盘资源

本站内容部分由用户自主分享和转载自互联网,转载目的在于传递更多信息,并不代表本网赞同其观点和对其真实性负责。

如有侵权、违反国家法律政策行为,请联系我们,我们会第一时间及时清除和处理!

举报反馈邮箱:lanniao@1080pro.net

Copyright   ©2019-2020  蓝光高清网    |网站地图