开通会员
全站资源畅享下载
4k原盘抢先下载
免高清币下载
会员用户组特权
开通会员
上传
收藏
首页
开启左侧

[剧情片] 浮草物语 A.Story.of.Floating.Weeds.1934.JAPANESE.ENSUBBED.1080p.AMZN.WEBRip.DD5.1.x264-SbR 3.52GB

[复制链接]
蓝鸟 发表于 2020-11-23 22:56:10 | 显示全部楼层 |阅读模式 打印 上一主题 下一主题
 

加入蓝光高清网,轻松下载最新4k资源

您需要 登录 才可以下载或查看,没有帐号?立即注册

x

浮草物语 A.Story.of.Floating.Weeds.1934.JAPANESE.ENSUBBED.1080p.AMZN.WEBRip.DD5.1.x264-SbR 3.52GB ...

浮草物语 A.Story.of.Floating.Weeds.1934.JAPANESE.ENSUBBED.1080p.AMZN.WEBRip.DD5.1.x264-SbR 3.52GB ...



译  名 浮草物语
片  名 浮草物語
年  代 1934
产  地 日本
类  别 剧情
语  言 日语
上映日期 1934-11-23
IMDb评分  7.8/10 from 2790 users
IMDb链接  https://www.imdb.com/title/tt0025929
豆瓣评分 8.4/10 from 1613 users
豆瓣链接 https://movie.douban.com/subject/1308278/
片  长 86 分钟(24 fps)
导  演 小津安二郎 Yasujir? Ozu
编  剧 小津安二郎 Yasujir? Ozu / 池田忠雄 Tadao Ikeda
主  演 坂本武 Takeshi Sakamoto
       饭田蝶子 Ch?ko Iida
       八云理惠子 Emiko Yagumo
       谷丽光 Reik? Tani
       坪内美子 Yoshiko Tsubouchi
       笠智众 Chish? Ry?
       三井弘次 K?ji Mitsui
       青木富夫 Tomio Aoki


标  签 小津安二郎 | 日本 | 默片 | 日本电影 | 1934 | 1930s | 黑白 | CC

简  介  

  天涯一身的喜八(坂本武 饰)带着戏班子在全国各地巡回演出,这一次他们来到了某个乡村。戏班子的表演在当地颇受欢迎,然而天公不作美,接连数日的大雨让他们的演出泡了汤。大家百无聊赖熬日子,喜八似乎不以为虑,他每日外出,只为了看看旧情人曾为他生下的儿子信吉。信吉并不知晓这位大叔的真实身份,对之以礼相待,关系融洽。在此期间,浪迹江湖的喜八渐渐找到了家的感觉。可是他一门心思陪着儿子,却引来作为他情人的女演员澄子的猜疑和嫉妒。澄子派出年轻演员淑子引诱信吉,试图破坏喜八渺小的幸福……本片是喜八系列的第二部作品。



该资源信息参数
  • Video
  • ID                                       : 1
  • Format                                   : AVC
  • Format/Info                              : Advanced Video Codec
  • Format profile                           : High@L4
  • Format settings                          : CABAC / 5 Ref Frames
  • Format settings, CABAC                   : Yes
  • Format settings, Reference frames        : 5 frames
  • Codec ID                                 : V_MPEG4/ISO/AVC
  • Duration                                 : 1 h 26 min
  • Bit rate                                 : 5 387 kb/s
  • Width                                    : 1 440 pixels
  • Height                                   : 1 080 pixels
  • Display aspect ratio                     : 4:3
  • Frame rate mode                          : Constant
  • Frame rate                               : 23.976 (24000/1001/45378) FPS
  • Color space                              : YUV
  • Chroma subsampling                       : 4:2:0
  • Bit depth                                : 8 bits
  • Scan type                                : Progressive
  • Bits/(Pixel*Frame)                       : 0.144
  • Stream size                              : 3.25 GiB (92%)
  • Writing library                          : x264 core 157 r10 d4099dd
  • Encoding settings                        : cabac=1 / ref=5 / deblock=1:0:0 / analyse=0x3:0x113 / me=hex / subme=8 / psy=1 / psy_rd=1.00:0.00 / mixed_ref=1 / me_range=16 / chroma_me=1 / trellis=2 / 8x8dct=1 / cqm=0 / deadzone=21,11 / fast_pskip=1 / chroma_qp_offset=-2 / threads=34 / lookahead_threads=5 / sliced_threads=0 / nr=0 / decimate=1 / interlaced=0 / bluray_compat=0 / stitchable=1 / constrained_intra=0 / bframes=3 / b_pyramid=2 / b_adapt=2 / b_bias=0 / direct=3 / weightb=1 / open_gop=0 / weightp=2 / keyint=infinite / keyint_min=23 / scenecut=40 / intra_refresh=0 / rc_lookahead=50 / rc=crf / mbtree=1 / crf=20.0 / qcomp=0.60 / qpmin=5 / qpmax=69 / qpstep=4 / vbv_maxrate=5500 / vbv_bufsize=15000 / crf_max=0.0 / nal_hrd=none / filler=0 / ip_ratio=1.40 / aq=1:1.00
  • Language                                 : Japanese
  • Default                                  : Yes
  • Forced                                   : No
  • Color range                              : Limited
  • Color primaries                          : BT.709
  • Transfer characteristics                 : BT.709
  • Matrix coefficients                      : BT.709
  • Audio
  • ID                                       : 2
  • Format                                   : AC-3
  • Format/Info                              : Audio Coding 3
  • Commercial name                          : Dolby Digital
  • Codec ID                                 : A_AC3
  • Duration                                 : 1 h 26 min
  • Bit rate mode                            : Constant
  • Bit rate                                 : 448 kb/s
  • Channel(s)                               : 5 channels
  • Channel layout                           : L R C Ls Rs
  • Sampling rate                            : 48.0 kHz
  • Frame rate                               : 31.250 FPS (1536 SPF)
  • Compression mode                         : Lossy
  • Stream size                              : 277 MiB (8%)
  • Title                                    : Music Score by Donald Sosin
  • Language                                 : Japanese
  • Service kind                             : Complete Main
  • Default                                  : Yes
  • Forced                                   : No
  • Menu
  • 00:00:00.000                             : en:01. Credits
  • 00:02:10.172                             : en:02. The Troupe Returns
  • 00:05:45.053                             : en:03. Settling In
  • 00:10:13.446                             : en:04. A Visit to the Patron
  • 00:17:00.102                             : en:05. Fishing
  • 00:19:35.633                             : en:06. Opening Night
  • 00:25:06.714                             : en:07. Rain
  • 00:29:27.307                             : en:08. Mother and Mistress Meet
  • 00:37:57.066                             : en:09. A Scheme Is Hatched
  • 00:40:59.457                             : en:10. Rendezvous
  • 00:46:47.085                             : en:11. Love Blossoms
  • 00:51:08.190                             : en:12. A Father\"s Anger
  • 01:01:39.696                             : en:13. The Show Closes
  • 01:08:35.361                             : en:14. Father and Son
  • 01:22:21.603                             : en:15. Starting Over

复制代码


浮草物语 A.Story.of.Floating.Weeds.1934.JAPANESE.ENSUBBED.1080p.AMZN.WEBRip.DD5.1.x264-SbR 3.52GB ...

浮草物语 A.Story.of.Floating.Weeds.1934.JAPANESE.ENSUBBED.1080p.AMZN.WEBRip.DD5.1.x264-SbR 3.52GB ...



浮草物语 A.Story.of.Floating.Weeds.1934.JAPANESE.ENSUBBED.1080p.AMZN.WEBRip.DD5.1.x264-SbR 3.52GB ...

浮草物语 A.Story.of.Floating.Weeds.1934.JAPANESE.ENSUBBED.1080p.AMZN.WEBRip.DD5.1.x264-SbR 3.52GB ...



浮草物语 A.Story.of.Floating.Weeds.1934.JAPANESE.ENSUBBED.1080p.AMZN.WEBRip.DD5.1.x264-SbR 3.52GB ...

浮草物语 A.Story.of.Floating.Weeds.1934.JAPANESE.ENSUBBED.1080p.AMZN.WEBRip.DD5.1.x264-SbR 3.52GB ...



   

蓝光高清网提示您  点击下方附件名称  马上开始下载

浮草物语 A.Story.of.Floating.Weeds.1934.JAPANESE.ENSUBBED.1080p.AMZN.WEBRip.DD5.1.x264-SbR 3.52GB
A.Story.of.Floating.Weeds.1934.JAPANESE.ENSUBBED.1080p.AMZN.WEBRip.DD5.1.x264-SbR.torrent (文件大小:35.81 KB)
加入蓝光高清网VIP会员  无限制下载本站所有资源---点这里

资源下载、资源播放、字幕使用、无法下载等常见问题---点这里
回复

使用道具 举报

 
您需要登录后才可以回帖 登录 | 立即注册

本版积分规则

0关注

2粉丝

93404帖子

  • 版块推荐
  • 百宝箱

电影推荐

更多+

热门电影

更多+

关注我们:微信服务号

官方微信

手机版

蓝光高清网

专注4k电影、4k视频、VR视频、高清电影、蓝光原盘资源

本站内容部分由用户自主分享和转载自互联网,转载目的在于传递更多信息,并不代表本网赞同其观点和对其真实性负责。

如有侵权、违反国家法律政策行为,请联系我们,我们会第一时间及时清除和处理!

举报反馈邮箱:lanniao@1080pro.net

Copyright   ©2019-2020  蓝光高清网    |网站地图