开通会员
全站资源畅享下载
4k原盘抢先下载
免高清币下载
会员用户组特权
开通会员
上传
收藏
首页
开启左侧

[剧情片] 一切都太疯狂了 Everything.Goes.Wrong.1960.JAPANESE.ENSUBBED.1080p.AMZN.WEBRip.AAC2.0.x264-SbR 2.76GB

[复制链接]
蓝鸟 发表于 2020-11-23 22:59:00 | 显示全部楼层 |阅读模式 打印 上一主题 下一主题
 

加入蓝光高清网,轻松下载最新4k资源

您需要 登录 才可以下载或查看,没有帐号?立即注册

x

一切都太疯狂了 Everything.Goes.Wrong.1960.JAPANESE.ENSUBBED.1080p.AMZN.WEBRip.AAC2.0.x264-SbR 2.76GB ...

一切都太疯狂了 Everything.Goes.Wrong.1960.JAPANESE.ENSUBBED.1080p.AMZN.WEBRip.AAC2.0.x264-SbR 2.76GB ...



译  名 一切都太疯狂了 / EVERYTHING GOES WRONG / Subete ga kurutteru
片  名 すべてが狂ってる
年  代 1960
产  地 日本
类  别 剧情
语  言 日语
上映日期 1960-10-08
IMDb评分  6.9/10 from 278 users
IMDb链接  https://www.imdb.com/title/tt0054350
豆瓣评分 0/10 from 0 users
豆瓣链接 https://movie.douban.com/subject/6969771/
片  长 74分钟(网络版)
导  演 铃木清顺 Seijun Suzuki
主  演 川地民夫 Tamio Kawaji
       奈良冈朋子 Tomoko Naraoka
       芦田伸介 Shinsuke Ashida
       吉永小百合 Sayuri Yoshinaga


标  签 日本 | 铃木清顺 | 1960 | 鈴木清順 | 1960s | 日本电影 | 吉永小百合 | 粉红日影

简  介  

  カメラが自由自在に動き回り、無秩序で破滅的なストーリー展開が何とも言えない後味を残す鈴木清順の異色作。本編に流れるジャズやドキュメントタッチな映像がヌーベルバーグを意識して作られたとも言われる、監督の初期の傑作として語り継がれている。



该资源信息参数
  • Video
  • ID                                       : 1
  • Format                                   : AVC
  • Format/Info                              : Advanced Video Codec
  • Format profile                           : High@L4
  • Format settings                          : CABAC / 5 Ref Frames
  • Format settings, CABAC                   : Yes
  • Format settings, Reference frames        : 5 frames
  • Codec ID                                 : V_MPEG4/ISO/AVC
  • Duration                                 : 1 h 11 min
  • Bit rate                                 : 5 393 kb/s
  • Width                                    : 1 920 pixels
  • Height                                   : 1 080 pixels
  • Display aspect ratio                     : 16:9
  • Frame rate mode                          : Constant
  • Frame rate                               : 23.976 (24000/1001/45378) FPS
  • Color space                              : YUV
  • Chroma subsampling                       : 4:2:0
  • Bit depth                                : 8 bits
  • Scan type                                : Progressive
  • Bits/(Pixel*Frame)                       : 0.108
  • Stream size                              : 2.69 GiB (97%)
  • Writing library                          : x264 core 157 r10 d4099dd
  • Encoding settings                        : cabac=1 / ref=5 / deblock=1:0:0 / analyse=0x3:0x113 / me=hex / subme=8 / psy=1 / psy_rd=1.00:0.00 / mixed_ref=1 / me_range=16 / chroma_me=1 / trellis=2 / 8x8dct=1 / cqm=0 / deadzone=21,11 / fast_pskip=1 / chroma_qp_offset=-2 / threads=34 / lookahead_threads=5 / sliced_threads=0 / nr=0 / decimate=1 / interlaced=0 / bluray_compat=0 / stitchable=1 / constrained_intra=0 / bframes=3 / b_pyramid=2 / b_adapt=2 / b_bias=0 / direct=3 / weightb=1 / open_gop=0 / weightp=2 / keyint=infinite / keyint_min=23 / scenecut=40 / intra_refresh=0 / rc_lookahead=50 / rc=crf / mbtree=1 / crf=20.0 / qcomp=0.60 / qpmin=5 / qpmax=69 / qpstep=4 / vbv_maxrate=5500 / vbv_bufsize=15000 / crf_max=0.0 / nal_hrd=none / filler=0 / ip_ratio=1.40 / aq=1:1.00
  • Language                                 : Japanese
  • Default                                  : Yes
  • Forced                                   : No
  • Color range                              : Limited
  • Color primaries                          : BT.709
  • Transfer characteristics                 : BT.709
  • Matrix coefficients                      : BT.709
  • Audio
  • ID                                       : 2
  • Format                                   : AAC LC
  • Format/Info                              : Advanced Audio Codec Low Complexity
  • Codec ID                                 : A_AAC-2
  • Duration                                 : 1 h 11 min
  • Bit rate                                 : 137 kb/s
  • Channel(s)                               : 2 channels
  • Channel layout                           : L R
  • Sampling rate                            : 48.0 kHz
  • Frame rate                               : 46.875 FPS (1024 SPF)
  • Compression mode                         : Lossy
  • Stream size                              : 70.0 MiB (2%)
  • Language                                 : Japanese
  • Default                                  : Yes
  • Forced                                   : No
  • Menu
  • 00:00:00.000                             : en:Chapter 1
  • 00:02:12.215                             : en:Chapter 2
  • 00:05:19.653                             : en:Chapter 3
  • 00:07:23.568                             : en:Chapter 4
  • 00:09:54.594                             : en:Chapter 5
  • 00:15:07.782                             : en:Chapter 6
  • 00:18:00.246                             : en:Chapter 7
  • 00:25:37.578                             : en:Chapter 8
  • 00:30:27.451                             : en:Chapter 9
  • 00:36:59.259                             : en:Chapter 10
  • 00:45:20.426                             : en:Chapter 11
  • 00:49:48.152                             : en:Chapter 12
  • 00:54:34.605                             : en:Chapter 13
  • 00:58:10.278                             : en:Chapter 14
  • 01:03:56.958                             : en:Chapter 15
  • 01:08:30.648                             : en:Chapter 16

复制代码


一切都太疯狂了 Everything.Goes.Wrong.1960.JAPANESE.ENSUBBED.1080p.AMZN.WEBRip.AAC2.0.x264-SbR 2.76GB ...

一切都太疯狂了 Everything.Goes.Wrong.1960.JAPANESE.ENSUBBED.1080p.AMZN.WEBRip.AAC2.0.x264-SbR 2.76GB ...



一切都太疯狂了 Everything.Goes.Wrong.1960.JAPANESE.ENSUBBED.1080p.AMZN.WEBRip.AAC2.0.x264-SbR 2.76GB ...

一切都太疯狂了 Everything.Goes.Wrong.1960.JAPANESE.ENSUBBED.1080p.AMZN.WEBRip.AAC2.0.x264-SbR 2.76GB ...



一切都太疯狂了 Everything.Goes.Wrong.1960.JAPANESE.ENSUBBED.1080p.AMZN.WEBRip.AAC2.0.x264-SbR 2.76GB ...

一切都太疯狂了 Everything.Goes.Wrong.1960.JAPANESE.ENSUBBED.1080p.AMZN.WEBRip.AAC2.0.x264-SbR 2.76GB ...



   

蓝光高清网提示您  点击下方附件名称  马上开始下载

一切都太疯狂了 Everything.Goes.Wrong.1960.JAPANESE.ENSUBBED.1080p.AMZN.WEBRip.AAC2.0.x264-SbR 2.76GB
Everything.Goes.Wrong.1960.JAPANESE.ENSUBBED.1080p.AMZN.WEBRip.AAC2.0.x264-SbR.torrent (文件大小:28.19 KB)
加入蓝光高清网VIP会员  无限制下载本站所有资源---点这里

资源下载、资源播放、字幕使用、无法下载等常见问题---点这里
回复

使用道具 举报

 
您需要登录后才可以回帖 登录 | 立即注册

本版积分规则

0关注

2粉丝

93404帖子

  • 版块推荐
  • 百宝箱

电影推荐

更多+

热门电影

更多+

关注我们:微信服务号

官方微信

手机版

蓝光高清网

专注4k电影、4k视频、VR视频、高清电影、蓝光原盘资源

本站内容部分由用户自主分享和转载自互联网,转载目的在于传递更多信息,并不代表本网赞同其观点和对其真实性负责。

如有侵权、违反国家法律政策行为,请联系我们,我们会第一时间及时清除和处理!

举报反馈邮箱:lanniao@1080pro.net

Copyright   ©2019-2020  蓝光高清网    |网站地图