开通会员
全站资源畅享下载
4k原盘抢先下载
免高清币下载
会员用户组特权
开通会员
上传
收藏
首页
开启左侧

[剧情片] 长枪权三/枪之权三 Gonza.the.Spearman.1986.JAPANESE.ENSUBBED.1080p.AMZN.WEBRip.AAC2.0.x264-SbR 4.83GB

[复制链接]
蓝鸟 发表于 2020-11-23 23:01:47 | 显示全部楼层 |阅读模式 打印 上一主题 下一主题
 

加入蓝光高清网,轻松下载最新4k资源

您需要 登录 才可以下载或查看,没有帐号?立即注册

x

长枪权三/枪之权三 Gonza.the.Spearman.1986.JAPANESE.ENSUBBED.1080p.AMZN.WEBRip.AAC2.0.x264-SbR 4.83GB ...

长枪权三/枪之权三 Gonza.the.Spearman.1986.JAPANESE.ENSUBBED.1080p.AMZN.WEBRip.AAC2.0.x264-SbR 4.83GB ...



译  名 长枪权三 / Gonza.the.Spearman / 枪之权三 / 枪圣权三
片  名 鑓の権三
年  代 1986
产  地 日本
类  别 剧情
语  言 日语
上映日期 1986-01-15
IMDb评分  7.0/10 from 313 users
IMDb链接  https://www.imdb.com/title/tt0091136
豆瓣评分 7.4/10 from 411 users
豆瓣链接 https://movie.douban.com/subject/1295632/
片  长 126 分钟
导  演 筱田正浩 Masahiro Shinoda
编  剧 近松门左卫门 Chikamatsu Monzaemon
主  演 岩下志麻 Shima Iwashita
       田中美佐子 Tanaka Misako
       乡裕美 Hiromi G?


标  签 筱田正浩 | 日本 | 日本电影 | 岩下志麻 | 武士 | 1980s | 篠田正浩 | 1986

简  介  

  武士权三在藩内享有“枪圣”的威名,更因相貌英俊颇受众女性爱慕。武士伴之丞始终要同权三一争高下,然而在和平时代,众武士只求藩主继承人顺利出生好保留自身武士身份得过且过。权三与伴之丞这样的一流高手无用武之地,只能借为藩主庆贺的大典上通过争较茶道“真台子”资格分出高低。两人的茶道师母彩(岩下志麻 饰)属意权三,于三更时分将真台子奥义倾授权三,不料伴之丞抢得两人腰带作为通奸证据。权三与彩虽无实事,但在彩的一再要求下连夜奔逃。一路上权三始终无法全意接受彩的示爱,同时师父市之进与彩亲弟甚平组成的追杀队伍亦步步紧逼,一对儿亡命伴侣将何去何从?本片获1986年柏林电影节最佳导演银熊奖。

获奖情况  

  第36届柏林国际电影节(1986)
  金熊奖 最佳影片(提名) 筱田正浩
  银熊奖 杰出艺术成就奖 筱田正浩



该资源信息参数
  • Video
  • ID                                       : 1
  • Format                                   : AVC
  • Format/Info                              : Advanced Video Codec
  • Format profile                           : High@L4
  • Format settings                          : CABAC / 5 Ref Frames
  • Format settings, CABAC                   : Yes
  • Format settings, Reference frames        : 5 frames
  • Codec ID                                 : V_MPEG4/ISO/AVC
  • Duration                                 : 2 h 6 min
  • Bit rate                                 : 5 320 kb/s
  • Width                                    : 1 920 pixels
  • Height                                   : 1 080 pixels
  • Display aspect ratio                     : 16:9
  • Frame rate mode                          : Constant
  • Frame rate                               : 23.976 (24000/1001/45378) FPS
  • Color space                              : YUV
  • Chroma subsampling                       : 4:2:0
  • Bit depth                                : 8 bits
  • Scan type                                : Progressive
  • Bits/(Pixel*Frame)                       : 0.107
  • Stream size                              : 4.71 GiB (97%)
  • Writing library                          : x264 core 157 r10 d4099dd
  • Encoding settings                        : cabac=1 / ref=5 / deblock=1:0:0 / analyse=0x3:0x113 / me=hex / subme=8 / psy=1 / psy_rd=1.00:0.00 / mixed_ref=1 / me_range=16 / chroma_me=1 / trellis=2 / 8x8dct=1 / cqm=0 / deadzone=21,11 / fast_pskip=1 / chroma_qp_offset=-2 / threads=34 / lookahead_threads=5 / sliced_threads=0 / nr=0 / decimate=1 / interlaced=0 / bluray_compat=0 / stitchable=1 / constrained_intra=0 / bframes=3 / b_pyramid=2 / b_adapt=2 / b_bias=0 / direct=3 / weightb=1 / open_gop=0 / weightp=2 / keyint=infinite / keyint_min=23 / scenecut=40 / intra_refresh=0 / rc_lookahead=50 / rc=crf / mbtree=1 / crf=20.0 / qcomp=0.60 / qpmin=5 / qpmax=69 / qpstep=4 / vbv_maxrate=5500 / vbv_bufsize=15000 / crf_max=0.0 / nal_hrd=none / filler=0 / ip_ratio=1.40 / aq=1:1.00
  • Language                                 : Japanese
  • Default                                  : Yes
  • Forced                                   : No
  • Color range                              : Limited
  • Color primaries                          : BT.709
  • Transfer characteristics                 : BT.709
  • Matrix coefficients                      : BT.709
  • Audio
  • ID                                       : 2
  • Format                                   : AAC LC
  • Format/Info                              : Advanced Audio Codec Low Complexity
  • Codec ID                                 : A_AAC-2
  • Duration                                 : 2 h 6 min
  • Bit rate                                 : 137 kb/s
  • Channel(s)                               : 2 channels
  • Channel layout                           : L R
  • Sampling rate                            : 48.0 kHz
  • Frame rate                               : 46.875 FPS (1024 SPF)
  • Compression mode                         : Lossy
  • Stream size                              : 124 MiB (3%)
  • Language                                 : Japanese
  • Default                                  : Yes
  • Forced                                   : No
  • Menu
  • 00:00:00.000                             : en:Chapter 1
  • 00:07:35.789                             : en:Chapter 2
  • 00:22:22.341                             : en:Chapter 3
  • 00:30:03.135                             : en:Chapter 4
  • 00:39:44.966                             : en:Chapter 5
  • 00:48:51.178                             : en:Chapter 6
  • 00:55:03.467                             : en:Chapter 7
  • 01:04:40.794                             : en:Chapter 8
  • 01:09:18.446                             : en:Chapter 9
  • 01:14:33.928                             : en:Chapter 10
  • 01:19:27.429                             : en:Chapter 11
  • 01:23:55.906                             : en:Chapter 12
  • 01:31:23.436                             : en:Chapter 13
  • 01:44:56.749                             : en:Chapter 14
  • 01:59:21.654                             : en:Chapter 15

复制代码


长枪权三/枪之权三 Gonza.the.Spearman.1986.JAPANESE.ENSUBBED.1080p.AMZN.WEBRip.AAC2.0.x264-SbR 4.83GB ...

长枪权三/枪之权三 Gonza.the.Spearman.1986.JAPANESE.ENSUBBED.1080p.AMZN.WEBRip.AAC2.0.x264-SbR 4.83GB ...



长枪权三/枪之权三 Gonza.the.Spearman.1986.JAPANESE.ENSUBBED.1080p.AMZN.WEBRip.AAC2.0.x264-SbR 4.83GB ...

长枪权三/枪之权三 Gonza.the.Spearman.1986.JAPANESE.ENSUBBED.1080p.AMZN.WEBRip.AAC2.0.x264-SbR 4.83GB ...



长枪权三/枪之权三 Gonza.the.Spearman.1986.JAPANESE.ENSUBBED.1080p.AMZN.WEBRip.AAC2.0.x264-SbR 4.83GB ...

长枪权三/枪之权三 Gonza.the.Spearman.1986.JAPANESE.ENSUBBED.1080p.AMZN.WEBRip.AAC2.0.x264-SbR 4.83GB ...



   

蓝光高清网提示您  点击下方附件名称  马上开始下载

长枪权三/枪之权三 Gonza.the.Spearman.1986.JAPANESE.ENSUBBED.1080p.AMZN.WEBRip.AAC2.0.x264-SbR 4.83GB
Gonza.the.Spearman.1986.JAPANESE.ENSUBBED.1080p.AMZN.WEBRip.AAC2.0.x264-SbR.torrent (文件大小:48.91 KB)
加入蓝光高清网VIP会员  无限制下载本站所有资源---点这里

资源下载、资源播放、字幕使用、无法下载等常见问题---点这里
回复

使用道具 举报

 
您需要登录后才可以回帖 登录 | 立即注册

本版积分规则

0关注

2粉丝

93404帖子

  • 版块推荐
  • 百宝箱

电影推荐

更多+

热门电影

更多+

关注我们:微信服务号

官方微信

手机版

蓝光高清网

专注4k电影、4k视频、VR视频、高清电影、蓝光原盘资源

本站内容部分由用户自主分享和转载自互联网,转载目的在于传递更多信息,并不代表本网赞同其观点和对其真实性负责。

如有侵权、违反国家法律政策行为,请联系我们,我们会第一时间及时清除和处理!

举报反馈邮箱:lanniao@1080pro.net

Copyright   ©2019-2020  蓝光高清网    |网站地图