开通会员
全站资源畅享下载
4k原盘抢先下载
免高清币下载
会员用户组特权
开通会员
上传
收藏
首页
开启左侧

My.Psychedelic.Love.Story 4 K.2020.2160p.WEB.H265-纪录片下载—10.76 GB

[复制链接]
4k演示 发表于 2020-11-30 11:37:43 | 显示全部楼层 |阅读模式 打印 上一主题 下一主题

My.Psychedelic.Love.Story(2020年上映)

主演
导演埃罗尔·莫里斯
类型记录 
地区美国 
片长101分钟
画质4K 原盘
音轨Dolby TrueHD 5.1 
评分豆瓣暂无评分
电影【My.Psychedelic.Love.Story】原盘信息
 

加入蓝光高清网,轻松下载最新4k资源

您需要 登录 才可以下载或查看,没有帐号?立即注册

x
# V  P( H1 v  D5 Z
% j6 D% o& y9 q7 g5 H* O6 P/ f( L
简       介8 X& W1 `. M$ }
6 f/ @! h* g  G0 E( o" x# t
       An examination of the high priest of LSD Timothy Leary through the eyes of famed lover Joanna Harcourt-Smith. Was Leary\'s "perfect love" a CIA plant or was she simply a rich, beautiful young woman out for the adventure of a lifetime?
. j- l6 G4 m/ c# f, E% f9 k6 k; T% N9 O
- V) z, ^  l- N6 _. l
影片参数
; C! h* X4 ?0 [( [
My.Psychedelic.Love.Story4K.2020.2160p.WEB.H265-纪录片电影信息
$ ]( a6 Q* w' z# J8 K8 l* t+ `Video
& p: L9 b! q3 L( b2 ?5 sID : 1/ f7 q* c+ Q% \
Format : HEVC
& |: O! I$ @1 R1 pFormat/Info : High Efficiency Video Coding
( G/ o6 W% Z% O* v( u: jFormat profile : Main@L5@Main+ @$ ]9 U( L, z5 \( ]4 _
Codec ID : V_MPEGH/ISO/HEVC5 b4 Y* d% a' f3 W& Q5 t9 \  d1 a( O
Duration : 1 h 41 min
" `2 F0 e9 o3 ?' Z8 tBit rate : 14.3 Mb/s" v3 Q5 `3 v+ H3 B! L5 E
Width : 3 840 pixels4 I4 [( j; |3 w6 I, Y
Height : 2 160 pixels! x  ]+ z0 R, ^/ p
Display aspect ratio : 16:9
: s. T+ L% Z+ ]* nFrame rate mode : Constant& R7 m/ x& C/ V% T4 L2 r
Frame rate : 23.976 (24000/1001) FPS  c$ `5 E# g$ h$ A
Color space : YUV
, t) x& c7 b8 s- QChroma subsampling : 4:2:0
  l8 D* x9 A  f$ u* [; P7 e6 b1 {Bit depth : 8 bits7 q) Q. o" x! E4 ]6 x
Bits/(Pixel*Frame) : 0.072
3 E+ \4 `5 R+ d* t2 GStream size : 10.2 GiB (95%)6 u% u+ v7 K# z/ V# m7 g
Writing library : x265 2.8hy:[Linux][GCC 7.5.0][64 bit] 8bit
. m4 ^! K3 s. V2 OEncoding settings : cpuid=1111039 / frame-threads=1 / no-wpp / no-pmode / no-pme / no-psnr / no-ssim / log-level=2 / input-csp=1 / input-res=3840x2160 / interlace=0 / total-frames=0 / level-idc=0 / high-tier=1 / uhd-bd=0 / ref=4 / no-allow-non-conformance / repeat-headers / annexb / aud / hrd / info / hash=0 / no-temporal-layers / no-open-gop / min-keyint=48 / keyint=48 / gop-lookahead=0 / bframes=4 / b-adapt=2 / b-pyramid / bframe-bias=0 / rc-lookahead=48 / lookahead-slices=4 / scenecut=0 / radl=0 / no-intra-refresh / ctu=64 / min-cu-size=8 / rect / no-amp / max-tu-size=32 / tu-inter-depth=1 / tu-intra-depth=1 / limit-tu=0 / rdoq-level=2 / dynamic-rd=0.00 / no-ssim-rd / signhide / no-tskip / nr-intra=100 / nr-inter=200 / no-constrained-intra / strong-intra-smoothing / max-merge=3 / limit-refs=3 / limit-modes / me=3 / subme=3 / merange=57 / temporal-mvp / weightp / no-weightb / no-analyze-src-pics / deblock=0:0 / no-sao / no-sao-non-deblock / rd=4 / no-early-skip / no-rskip / no-fast-intra / no-tskip-fast / no-cu-lossless / no-b-intra / no-splitrd-skip / rdpenalty=0 / psy-rd=0.00 / psy-rdoq=10.00 / no-rd-refine / no-lossless / cbqpoffs=0 / crqpoffs=0 / rc=abr / bitrate=15000 / qcomp=0.60 / qpstep=1 / stats-write=0 / stats-read=2 / cplxblur=20.0 / qblur=0.5 / vbv-maxrate=18000 / vbv-bufsize=12000 / vbv-init=0.6 / vbv-end=0.6 / vbv-end-fr-adj=0.0 / ipratio=1.10 / pbratio=1.00 / aq-mode=0 / aq-strength=0.00 / no-cutree / zone-count=0 / no-strict-cbr / qg-size=32 / rc-grain / qpmax=69 / qpmin=0 / const-vbv / sar=0 / overscan=0 / videoformat=5 / range=0 / colorprim=1 / transfer=1 / colormatrix=1 / chromaloc=0 / display-window=0 / max-cll=0,0 / min-luma=0 / max-luma=255 / log2-max-poc-lsb=8 / vui-timing-info / vui-hrd-info / no-concatenation / slices=1 / no-opt-qp-pps / no-opt-ref-list-length-pps / no-multi-pass-opt-rps / scenecut-bias=0.05 / no-opt-cu-delta-qp / no-aq-motion / no-hdr / no-hdr-opt / no-dhdr10-opt / no-idr-recovery-sei / analysis-reuse-level=5 / scale-factor=0 / refine-intra=0 / refine-inter=0 / refine-mv=0 / no-limit-sao / ctu-info=0 / no-lowpass-dct / refine-mv-type=0 / copy-pic=1 / max-ausize-factor=1.0 / no-dynamic-refine / no-single-sei
2 N" I  ^9 q1 EDefault : Yes, h0 |( c; T( g) d" y9 P
Forced : No. }0 ]4 {' R4 E% c$ f
Color range : Limited0 d/ Y5 P: Q- O1 N! f
Color primaries : BT.709, E& D2 j' [% W" W
Transfer characteristics : BT.709( Z9 f0 A) N" W/ g& V
Matrix coefficients : BT.709+ @4 a8 u8 A2 G1 m8 {8 T
, I: W6 F0 E7 S1 {
8 Y( |* ~" [% `# a# S- _
Audio
0 C2 g' @1 V: aID : 2
/ i8 C+ C, c1 e$ v2 _$ o/ IFormat : AC-3* ]  L8 c; l& g& ]( |& r; Y
Format/Info : Audio Coding 32 o/ h7 P. |2 {, [7 @. h) a( ]
Commercial name : Dolby Digital0 }) t. K: w7 I$ C
Codec ID : A_AC3
8 L" ?0 S' l4 Z7 q1 O/ wDuration : 1 h 41 min
% @1 q, q# @, P2 X- G! ]# OBit rate mode : Constant- _1 Z/ D6 B: E7 |2 o# o
Bit rate : 384 kb/s8 Z4 x5 X7 _8 e7 U- @
Channel(s) : 6 channels
4 @9 A; y) n% d$ dChannel layout : L R C LFE Ls Rs
/ a; E' P+ }# s, r# R: a0 q0 ~Sampling rate : 48.0 kHz
9 p+ w$ B1 t$ |# x9 f- `% z6 JFrame rate : 31.250 FPS (1536 SPF): Y6 O7 J" A9 L  G0 b' p- e+ _
Compression mode : Lossy' f7 n$ w- K" i* J
Stream size : 279 MiB (3%)
& K! y: H" c+ U" w/ R  FLanguage : English* L0 E9 a4 |- I& o3 [
Service kind : Complete Main* \, @; M4 F2 g3 b
Default : Yes
' B0 _/ k4 a' s# ]( \' WForced : No
3 P" f4 U! r! V3 n8 U1 j8 @5 O! Y  H/ l' ?
( k( D% N; ]% ?
Text, u' r8 z# U6 X9 y/ S
ID : 31 {% z0 O* F5 {: _
Format : UTF-8
# X0 _+ e, b8 F3 L8 A8 g- [Codec ID : S_TEXT/UTF8
  U$ r2 I9 u5 ICodec ID/Info : UTF-8 Plain Text# b. w% z1 b) u
Language : English
( F  `, O" s5 r% A) y4 |7 y, L( g: hDefault : No
  X# R4 ?+ L0 F/ G7 [' SForced : No
& C) b' \  f. B5 @1 ^* z4 n2 c
蓝光高清网提示您  点击下方附件名称  马上开始下载" n: q8 Z9 M- c: a: I- Q

" J* D5 u& {% s: c3 Z
: h, k: L+ h8 F3 y" f* [9 {( }
My.Psychedelic.Love.Story4K.2020.2160p.WEB.H265-纪录片电影下载! n: z6 L! h; c3 i8 \0 W7 ^

/ i! d. B* D9 o$ I& cMy.Psychedelic.Love.Story4K.2020.2160p.WEB.H265【4K 10.76 GB】
6 s. I  D7 @% }3 h- m" N6 u My.Psychedelic.Love.Story 4K.2020.2160p.WEB.H265-NAISU.torrent (文件大小:54.49 KB)
回复

使用道具 举报

 

精彩评论2

正序浏览
gdlmxia 发表于 2020-11-30 13:29:36 | 显示全部楼层
 
太好啦&萬分感謝版主的無私發佈分享%
回复

使用道具 举报

 
feiyue 发表于 2020-11-30 21:38:29 | 显示全部楼层
 
, ]. ?8 N( y/ ~! [7 {' ~
支持蓝光高清网
回复

使用道具 举报

 
您需要登录后才可以回帖 登录 | 立即注册

本版积分规则

0关注

0粉丝

745帖子

  • 版块推荐
  • 百宝箱

电影推荐

更多+

热门电影

更多+

下载APP 签到更便捷

官方微信

手机APP

蓝光高清网

专注4k电影、4k视频、VR视频、高清电影、蓝光原盘资源

本站内容部分由用户自主分享和转载自互联网,转载目的在于传递更多信息,并不代表本网赞同其观点和对其真实性负责。

如有侵权、违反国家法律政策行为,请联系我们,我们会第一时间及时清除和处理!

举报反馈邮箱:lanniao@1080pro.net

Copyright   ©2019-2020  蓝光高清网    |网站地图