蓝光高清网

开启左侧

[其他] 奥黛丽 Audrey.2020.1080p.BluRay.REMUX.AVC.DTS-HD.MA.5.1-FGT 25.10GB

[复制链接]

2021-11-24 11:10:35 13777 2

20190801120031.jpg


译  名 奥黛丽
片  名 Audrey
年  代 2020
产  地 美国
类  别 纪录片
语  言 英语
上映日期 2020-11-30(英国) / 2020-12-15(美国)
IMDb评分  9.1/10 from 18 users
IMDb链接  https://www.imdb.com/title/tt10731386
豆瓣评分 0/10 from 0 users
豆瓣链接 https://movie.douban.com/subject/34780432/

标  签 纪录片 | 传记 | 美国 | 2020

简  介  

  Good Deed拿下讲述奥黛丽·赫本的纪录片[奥黛丽](Audrey,暂译)北美发行权。该片由海伦娜·科恩([臻于至善])执导,Salon Pictures制作。影片讲述奥黛丽隐藏在完美外表下的伤心故事,同时也将记录她如何追随自己的内心离开了好莱坞,在人道主义的工作上寻找到真正的激情以及遇到她将陪伴度过余生的男人。影片将包括大量视听的材料及访谈。[奥黛丽]将于2020年登陆北美院线。



该资源信息参数
  • Video
  • ID                                       : 1
  • ID in the original source medium         : 4113 (0x1011)
  • Format                                   : AVC
  • Format/Info                              : Advanced Video Codec
  • Format profile                           : High@L4.1
  • Format settings                          : CABAC / 4 Ref Frames
  • Format settings, CABAC                   : Yes
  • Format settings, Reference frames        : 4 frames
  • Codec ID                                 : V_MPEG4/ISO/AVC
  • Duration                                 : 1 h 40 min
  • Bit rate mode                            : Constant
  • Bit rate                                 : 32.4 Mb/s
  • Nominal bit rate                         : 35.0 Mb/s
  • Width                                    : 1 920 pixels
  • Height                                   : 1 080 pixels
  • Display aspect ratio                     : 16:9
  • Frame rate mode                          : Constant
  • Frame rate                               : 23.976 (24000/1001/45378) FPS
  • Standard                                 : NTSC
  • Color space                              : YUV
  • Chroma subsampling                       : 4:2:0
  • Bit depth                                : 8 bits
  • Scan type                                : Progressive
  • Bits/(Pixel*Frame)                       : 0.651
  • Stream size                              : 22.8 GiB (91%)
  • Language                                 : English
  • Default                                  : No
  • Forced                                   : No
  • Color range                              : Limited
  • Color primaries                          : BT.709
  • Transfer characteristics                 : BT.709
  • Matrix coefficients                      : BT.709
  • Original source medium                   : Blu-ray
  • Audio #1
  • ID                                       : 2
  • ID in the original source medium         : 4352 (0x1100)
  • Format                                   : DTS XLL
  • Format/Info                              : Digital Theater Systems
  • Commercial name                          : DTS-HD Master Audio
  • Codec ID                                 : A_DTS
  • Duration                                 : 1 h 40 min
  • Bit rate mode                            : Variable
  • Bit rate                                 : 1 746 kb/s
  • Channel(s)                               : 6 channels
  • Channel layout                           : C L R Ls Rs LFE
  • Sampling rate                            : 48.0 kHz
  • Frame rate                               : 93.750 FPS (512 SPF)
  • Bit depth                                : 16 bits
  • Compression mode                         : Lossless
  • Stream size                              : 1.23 GiB (5%)
  • Title                                    : DTS-HD MA 5.1
  • Language                                 : English
  • Default                                  : Yes
  • Forced                                   : No
  • Original source medium                   : Blu-ray
  • Audio #2
  • ID                                       : 3
  • ID in the original source medium         : 4353 (0x1101)
  • Format                                   : PCM
  • Format settings                          : Little / Signed
  • Codec ID                                 : A_PCM/INT/LIT
  • Duration                                 : 1 h 40 min
  • Bit rate mode                            : Constant
  • Bit rate                                 : 1 536 kb/s
  • Channel(s)                               : 2 channels
  • Sampling rate                            : 48.0 kHz
  • Frame rate                               : 30.000 FPS (1600 SPF)
  • Bit depth                                : 16 bits
  • Stream size                              : 1.08 GiB (4%)
  • Title                                    : LPCM 2.0
  • Language                                 : English
  • Default                                  : No
  • Forced                                   : No
  • Original source medium                   : Blu-ray
  • Text #1
  • ID                                       : 4
  • Format                                   : UTF-8
  • Codec ID                                 : S_TEXT/UTF8
  • Codec ID/Info                            : UTF-8 Plain Text
  • Duration                                 : 1 h 36 min
  • Bit rate                                 : 78 b/s
  • Count of elements                        : 1517
  • Stream size                              : 55.2 KiB (0%)
  • Title                                    : English-SRT
  • Language                                 : English
  • Default                                  : Yes
  • Forced                                   : No
  • Text #2
  • ID                                       : 5
  • ID in the original source medium         : 4608 (0x1200)
  • Format                                   : PGS
  • Muxing mode                              : zlib
  • Codec ID                                 : S_HDMV/PGS
  • Codec ID/Info                            : Picture based subtitle format used on BDs/HD-DVDs
  • Duration                                 : 1 h 37 min
  • Bit rate                                 : 43.5 kb/s
  • Count of elements                        : 2189
  • Stream size                              : 30.3 MiB (0%)
  • Title                                    : English-PGS
  • Language                                 : English
  • Default                                  : No
  • Forced                                   : No
  • Original source medium                   : Blu-ray
  • Menu
  • 00:00:00.000                             : en:Chapter 01
  • 00:16:51.802                             : en:Chapter 02
  • 00:30:29.118                             : en:Chapter 03
  • 00:50:41.371                             : en:Chapter 04
  • 01:06:00.748                             : en:Chapter 05
  • 01:23:35.051                             : en:Chapter 06
  • 01:37:21.669                             : en:Chapter 07

复制代码


20190801120031.jpg


20190801120031.jpg


20190801120031.jpg


   

蓝光高清网提示您  点击下方附件名称  马上开始下载

奥黛丽 Audrey.2020.1080p.BluRay.REMUX.AVC.DTS-HD.MA.5.1-FGT 25.10GB
Audrey.2020.1080p.BluRay.REMUX.AVC.DTS-HD.MA.5.1-FGT.torrent (63.28 KB)
加入蓝光高清网VIP会员  无限制下载本站所有资源---点这里

资源下载、资源播放、字幕使用、无法下载等常见问题---点这里
回复

使用道具 举报

全部回复2

寒江雪飞手机认证 发表于 2021-11-19 23:38:38

寒江雪飞 沙发

2021-11-19 23:38:38

高清的,必须支持!
回复 支持 反对

使用道具 举报

szjgw手机认证 发表于 2021-11-24 11:10:35

szjgw 板凳

2021-11-24 11:10:35

多谢分享好资源
回复 支持 反对

使用道具 举报

发表回复

您需要登录后才可以回帖 登录 | 立即注册

返回列表 本版积分规则

:
:
1371333023@qq.com
:
点击这里给我发消息
:
http://
:
未填写

主题97224

帖子97728

积分183041

最新推荐

  • 五十度灰4K版 Fifty Shades of Grey 2015 2

    简 介 安娜(达科塔·约翰逊 Dakot

  • 轮回 4k.Samsara.2011.2160p.WEB-DL.x265.1

    简 介   灵动的音符与舞步,天真无邪且

  • 爱情是狗娘 4k.Amores.Perros.2000.SPANISH

    简 介   三个与狗有关的故事,三段令人

  • 异形:契约 4k Alien Covenant 2017 2160p

    简 介   故事发生在一艘名为“契约”的殖

  • 四百下 / 胡作非为 / The 400 Blows/四百击

    简 介   作文课上,安托万(Jean-Pierre

  • 永恒族 Eternals.2021.1080p.BluRay.REMUX.

    ◎译  名 永恒族 / 永恒神族 / The Eternals◎

  • 变种动物园 Cryptozoo.2021.1080p.BluRay.R

    ◎译  名 变种动物园 / 怪奇兽乐园(台)◎片 

  • 海王/ 水行侠(港/台),潜水侠,水人,人鱼

    简  介   很多年前,亚特兰蒂斯女王(妮可·

  • 伦敦大烟鬼 Smoke.Over.London.1966.ITALIA

    简 介   本片由Alberto Sordi自编自导自

  • 肖申克的救赎4k The.Shawshank.Redemption.

    简 介   一场谋杀案使银行家安迪(蒂姆

  • 发帖

  • 在线客服

  • 微信

  • 客户端

  • 返回顶部