开通会员
全站资源畅享下载
4k原盘抢先下载
免高清币下载
会员用户组特权
开通会员
上传
收藏
首页
开启左侧

神奇女侠1984 4k Wonder.Woman.1984.2020.IMAX.HDR.2160p.WEB.H265电影下载—14.05 GB

[复制链接]
蓝鸟 发表于 2020-12-26 14:58:42 | 显示全部楼层 |阅读模式 打印 上一主题 下一主题

神奇女侠1984(2020年上映)

主演盖尔·加朵 / 克里斯·派恩 / 克里斯汀·韦格 / 佩德罗·帕斯卡 / 康妮·尼尔森
导演派蒂·杰金斯
类型动作 奇幻 冒险 
地区美国 英国 其他 
片长151分钟
画质4K HDR 原盘
音轨Dolby TrueHD 5.1 Dolby Atmos 
评分豆瓣6.6分
电影【神奇女侠1984】原盘信息
 

加入蓝光高清网,轻松下载最新4k资源

您需要 登录 才可以下载或查看,没有帐号?立即注册

x

: w$ l7 h1 K/ U
- ~$ D7 x" s% Q- v6 P, T+ K简        介' r2 @; }2 U6 e1 l" L$ P- {

9 E9 I; J$ p' e" _0 H' [4 ]  故事背景设定在五光十色、充满诱惑的80年代,神奇女侠戴安娜在华盛顿的自然历史博物馆过着与普通人无异的生活,然而在阻止了一场看似平常的劫案后,身边的一切都发生了变化。在强大的神力诱惑下,两位全新劲敌悄然出现——与神奇女侠“相爱相杀”的顶级掠食者豹女, 以及掌控着能改变世界力量的麦克斯·洛德,一场惊天大战在所难免。另外一边,旧爱史蒂夫突然“死而复生”,与戴安娜再续前缘,然而浪漫感动之余,史蒂夫的回归也疑窦丛生。4 N/ R# m7 W  n
  新时代大幕开启,面对两位强大的邪恶反派和神秘归来的史蒂夫,神奇女侠要如何才能再次拯救世界?
, d# S  D4 g* C3 x+ v
/ F& @4 Q6 w: `- _5 v
. C" {! r; _' m- h
影片参数- r' M3 {' u4 O4 ?( c( w9 {* I2 ?
神力女超人1984(台) / 神奇女侠2 / Wonder Woman 2 / WW84/神奇女侠1984 4k Wonder.Woman.1984.2020.IMAX.HDR.2160p.WEB.H265电影信息
  @5 r, B$ C6 K- T, a$ jVideo
) _/ C7 l: t9 c- @0 s8 |ID : 1# M& t' F) E& b
Format : HEVC
2 A0 _. ]1 C1 }4 |* U% x4 KFormat/Info : High Efficiency Video Coding
; L* T8 Z' V5 n2 M/ BFormat profile : Main 10@L5@Main
9 V* H2 s6 V7 @8 y$ ?' S2 kHDR format : SMPTE ST 2086, HDR10 compatible0 @5 Q3 _2 @( [, f- W
Codec ID : V_MPEGH/ISO/HEVC
: F* W1 B7 P8 A* C) i" aDuration : 2 h 31 min! |7 F2 G! `- Z' u
Bit rate : 12.2 Mb/s; j; ^9 X, L* c% J8 B% v2 g
Width : 3 840 pixels
8 I, h) V# Y1 K$ DHeight : 2 160 pixels
& b+ T" o, q2 x6 tDisplay aspect ratio : 16:93 Z* _8 O7 \- F
Frame rate mode : Constant' g( d8 U" \3 o7 x4 H' s' P
Frame rate : 23.976 (24000/1001) FPS" s9 L* d' D3 \; v
Color space : YUV
9 N1 J* h. |+ S' t/ R3 ?! A2 F9 a. }Chroma subsampling : 4:2:0
: Q. f9 F7 g+ d  M+ ^Bit depth : 10 bits
  \6 q0 R& t6 |3 k2 s( ABits/(Pixel*Frame) : 0.061
+ H( l( i* o' {( \1 |, R4 mStream size : 12.9 GiB (92%)
1 ~# F  y7 _& R4 }. G$ K9 X: r9 CWriting library : x265 3.4hy:[Linux][GCC 7.5.0][64 bit] 10bit+ W4 }5 H  f+ L9 J9 ?- s
Encoding settings : cpuid=1111039 / frame-threads=6 / wpp / no-pmode / no-pme / no-psnr / no-ssim / log-level=2 / input-csp=1 / input-res=3840x2160 / interlace=0 / total-frames=0 / level-idc=0 / high-tier=1 / uhd-bd=0 / ref=4 / no-allow-non-conformance / repeat-headers / annexb / no-aud / no-hrd / info / hash=0 / no-temporal-layers / no-open-gop / min-keyint=48 / keyint=48 / gop-lookahead=0 / bframes=3 / b-adapt=2 / b-pyramid / bframe-bias=0 / rc-lookahead=20 / lookahead-slices=8 / scenecut=40 / hist-scenecut=0 / radl=0 / no-splice / no-intra-refresh / ctu=64 / min-cu-size=8 / no-rect / no-amp / max-tu-size=32 / tu-inter-depth=1 / tu-intra-depth=1 / limit-tu=0 / rdoq-level=0 / dynamic-rd=0.00 / no-ssim-rd / signhide / no-tskip / nr-intra=0 / nr-inter=0 / no-constrained-intra / strong-intra-smoothing / max-merge=3 / limit-refs=1 / no-limit-modes / me=1 / subme=2 / merange=57 / temporal-mvp / no-frame-dup / no-hme / weightp / no-weightb / no-analyze-src-pics / deblock=0:0 / sao / no-sao-non-deblock / rd=3 / selective-sao=4 / early-skip / rskip / no-fast-intra / no-tskip-fast / no-cu-lossless / b-intra / no-splitrd-skip / rdpenalty=0 / psy-rd=2.00 / psy-rdoq=0.00 / no-rd-refine / no-lossless / cbqpoffs=0 / crqpoffs=0 / rc=abr / bitrate=12500 / qcomp=0.60 / qpstep=4 / stats-write=0 / stats-read=2 / cplxblur=20.0 / qblur=0.5 / vbv-maxrate=18750 / vbv-bufsize=18750 / vbv-init=0.8 / ipratio=1.40 / pbratio=1.30 / aq-mode=2 / aq-strength=1.00 / cutree / zone-count=0 / no-strict-cbr / qg-size=32 / no-rc-grain / qpmax=69 / qpmin=0 / no-const-vbv / sar=1 / overscan=0 / videoformat=5 / range=0 / colorprim=9 / transfer=16 / colormatrix=9 / chromaloc=0 / display-window=0 / master-display=G(13250,34500)B(7500,3000)R(34000,16000)WP(15635,16450)L(10000000,1) / cll=596,200 / min-luma=0 / max-luma=1023 / log2-max-poc-lsb=8 / vui-timing-info / vui-hrd-info / no-concatenation / slices=1 / no-opt-qp-pps / no-opt-ref-list-length-pps / no-multi-pass-opt-rps / scenecut-bias=0.05 / hist-threshold=0.01 / no-opt-cu-delta-qp / no-aq-motion / hdr10 / no-hdr10-opt / no-dhdr10-opt / no-idr-recovery-sei / analysis-reuse-level=0 / analysis-save-reuse-level=0 / analysis-load-reuse-level=0 / scale-factor=0 / refine-intra=0 / refine-inter=0 / refine-mv=1 / refine-ctu-distortion=0 / no-limit-sao / ctu-info=0 / no-lowpass-dct / refine-analysis-type=0 / copy-pic=1 / max-ausize-factor=1.0 / no-dynamic-refine / no-single-sei / no-hevc-aq / no-svt / no-field / qp-adaptation-range=1.00 / no-scenecut-aware-qpconformance-window-offsets / right=0 / bottom=0 / decoder-max-rate=0
( W& i$ v! Y0 w6 L# @8 q' d# b3 ZDefault : Yes
2 ?! v  j% b9 F- C% t6 gForced : No) N5 Z2 e7 k: N- a  q/ H
Color range : Limited
# t" b! h+ w3 T; l' sColor primaries : BT.2020
0 M2 \; z4 `; m  vTransfer characteristics : PQ/ T$ \' \+ d5 G& C3 H5 w& t
Matrix coefficients : BT.2020 non-constant
0 D: Z" R) g  e* ~2 z% XMastering display color primaries : Display P3
1 ?) h/ W0 ]2 V2 F2 G. R: @Mastering display luminance : min: 0.0001 cd/m2, max: 1000 cd/m2$ _+ O4 |3 ^) v0 k: `9 X
Maximum Content Light Level : 596 cd/m2
" R4 B/ i9 D' EMaximum Frame-Average Light Level : 200 cd/m2/ B; ?6 g( C, ~: b3 w

2 Z# F; e3 K. ]9 d, W4 q7 b
7 t4 U5 q$ E6 `: |; c& l! z
Audio3 ^% X' V% N6 l% j: e
ID : 23 \; ~$ U; |+ B* A8 ]" g" v
Format : E-AC-3 JOC
( o& J  |7 p9 Q1 E- E# Q8 DFormat/Info : Enhanced AC-3 with Joint Object Coding- \1 ?/ I6 T7 q& Z; d
Commercial name : Dolby Digital Plus with Dolby Atmos& B; `; F, H! }& s, h
Codec ID : A_EAC3! H/ J3 {: I/ F% F0 z
Duration : 2 h 31 min
& W- a7 e( V+ t, f/ Q6 NBit rate mode : Constant" h9 t! }, e1 P$ F$ N
Bit rate : 768 kb/s
8 [' O* |1 b7 h+ k" TChannel(s) : 6 channels) A5 H% ~+ F" q8 g/ x; d
Channel layout : L R C LFE Ls Rs
  A" A6 F7 U/ B) p3 \& \1 j; SSampling rate : 48.0 kHz& V. Q7 e6 C) O  }7 k" w
Frame rate : 31.250 FPS (1536 SPF)
: v- \; p; q$ I/ ^& u2 rCompression mode : Lossy% {" }& p/ N' Q) i
Stream size : 830 MiB (6%)3 U1 p3 ^, C+ r
Language : English! Y( X( Z. R% t8 |3 P# R/ G
Service kind : Complete Main
2 N1 ?3 N7 q$ H0 i/ p9 O: h# T6 cDefault : Yes
3 T* d' s8 y' }" p4 m- JForced : No: w/ C3 I& Q7 K
Complexity index : 16
: e! D1 U* ^8 a, r6 n, QNumber of dynamic objects : 15$ I( b  o$ B# t
Bed channel count : 1 channel+ J, d* `+ O: M: J; Y
Bed channel configuration : LFE
9 o( Q2 A" l; G) G% T  Y( Z

3 L4 ]7 `% x9 A  M* q1 l. U

8 ~7 k! c, G+ d6 P" |4 n3 E" l% {蓝光高清网提示您  点击下方附件名称  马上开始下载+ r$ _3 `. k/ f; C6 I+ |

; O3 y3 J) h3 e. X1 m
0 Q, C( u2 D% ?3 ?1 N$ K
多版本下载时请注意区分
" R0 V1 E" b! j$ P+ O5 a8 h% ]$ h( E+ U5 G
神力女超人1984(台) / 神奇女侠2 / Wonder Woman 2 / WW84/神奇女侠1984 4k Wonder.Woman.1984.2020.IMAX.HDR.2160p.WEB.H265电影下载
! |+ B: x$ R. M$ M8 |+ u5 B. b3 R! R  _9 i. U  g! Z  u
神奇女侠1984 4k Wonder.Woman.1984.2020.IMAX.HDR.2160p.WEB.H265【14.05 GB】
7 U4 V, ?* e+ Q- I 神奇女侠1984 4k Wonder.Woman.1984.2020.IMAX.HDR.2160p.WEB.H265-NAISU.torrent (文件大小:70.96 KB)
. f) s9 y( ]6 d( o8 N

  L9 `7 B, D3 l$ H
神奇女侠1984中文字幕下载2 j; b+ p: Q; W7 z+ V+ X7 K+ O
Wonder.Woman.1984.2020.IMAX.1080p.WEB.H264-NOGRP.简体 (文件大小:287.22 KB)
, x( M  W& W. K  b2 Q, N$ F
, k8 A* n- ~# E" t0 V
加入蓝光高清网VIP会员  无限制下载本站所有资源---点这里

资源下载、资源播放、字幕使用、无法下载等常见问题---点这里
回复

使用道具 举报

 

精彩评论7

正序浏览
feiyue 发表于 2020-12-26 16:41:19 | 显示全部楼层
 
, R* n- m+ ~0 U5 ?1 w- A: L
祝蓝光高清网越办越红火。
回复

使用道具 举报

 
gdlmxia 发表于 2020-12-26 19:21:33 | 显示全部楼层
 
太好啦&萬分感謝版主的無私發佈分享%
回复

使用道具 举报

 
dragondd 发表于 2020-12-26 23:48:46 | 显示全部楼层
 

% v& f$ g& r0 o感谢蓝光高清网提供的优质资源,希望网站越办越好。
回复

使用道具 举报

 
梁生 发表于 2020-12-28 15:41:43 | 显示全部楼层
 

' _9 ?( s1 b; T" O; L好网站  希望越来越好
回复

使用道具 举报

 
huizhi008 发表于 2021-1-2 21:43:43 来自手机 | 显示全部楼层
 
只能支持一下吧
回复

使用道具 举报

 
╱o無疆之休 发表于 2021-1-5 22:17:31 | 显示全部楼层
 
非常感谢蓝光高清网分享的各种知识和资源,祝蓝光高清网越来越好
回复

使用道具 举报

 
lgs2007m 发表于 2021-2-10 17:44:02 | 显示全部楼层
 
感谢分享神奇女侠1984的4K
回复

使用道具 举报

 
您需要登录后才可以回帖 登录 | 立即注册

本版积分规则

0关注

2粉丝

93698帖子

  • 版块推荐
  • 百宝箱

电影推荐

更多+

热门电影

更多+

下载APP 签到更便捷

官方微信

手机APP

蓝光高清网

专注4k电影、4k视频、VR视频、高清电影、蓝光原盘资源

本站内容部分由用户自主分享和转载自互联网,转载目的在于传递更多信息,并不代表本网赞同其观点和对其真实性负责。

如有侵权、违反国家法律政策行为,请联系我们,我们会第一时间及时清除和处理!

举报反馈邮箱:lanniao@1080pro.net

Copyright   ©2019-2020  蓝光高清网    |网站地图