开通会员
全站资源畅享下载
4k原盘抢先下载
免高清币下载
会员用户组特权
开通会员
上传
收藏
首页
开启左侧

[4K 英剧] 黑水仙 4k Black.Narcissus.S01.2160p.美剧下载—21.95 GB

[复制链接]
蓝鸟 发表于 2021-1-1 22:15:17 | 显示全部楼层 |阅读模式 打印 上一主题 下一主题

黑水仙(上映日期:2021)4K(3840x2160)

简介  《黑水仙》(Black Narcissus)是一部三集迷你剧,Amanda Coe负责撰写剧本,Tom Winchester担任执行制片人。故事根据Rumer Godden的经典小说改编,主题仍然为「性压抑」、「禁忌之爱」和「宗教信仰」,并且掺杂了「超自然现象」。在遥远的尼泊尔,Clodagh修女和她的女子修道院正尝试与当地人更融洽地生活,但Clodagh修女内心压抑已久的性欲却在此过程中被唤醒了。她被地产商Dean先生深深吸引,但他们的关系越是充满激情,就越预示着悲剧结局——因为Clodagh修女的禁忌之爱似乎映射了古老的尼泊尔公主Srimati的爱情悲剧。
导演夏洛特·布鲁斯·克里斯滕森
主演杰玛·阿特登 / 艾斯琳·弗兰乔茜 / 黛安娜·里格 / 吉娜·麦基 / 亚历桑德罗·尼沃拉
类型剧情 
地区英国
声道5.1声道
编码其他DD
状态第一季(完结)
评分豆瓣6.4分
 

加入蓝光高清网,轻松下载最新4k资源

您需要 登录 才可以下载或查看,没有帐号?立即注册

x

影片参数
黑水仙4k Black.Narcissus.S01.2160p.WEBRip.x265.10bit.HDR.HLG.DD5.1.美剧信息
Video
ID : 1
Format : HEVC
Format/Info : High Efficiency Video Coding
Format profile : Main 10@L5.1@Main
Codec ID : V_MPEGH/ISO/HEVC
Duration : 54 min 5 s
Bit rate : 18.4 Mb/s
Width : 3 840 pixels
Height : 2 160 pixels
Display aspect ratio : 16:9
Frame rate mode : Constant
Frame rate : 25.000 FPS
Standard : Component
Color space : YUV
Chroma subsampling : 4:2:0
Bit depth : 10 bits
Bits/(Pixel*Frame) : 0.089
Stream size : 6.96 GiB (98%)
Title : Black.Narcissus.S01E01.2160p.WEBRip.x265.10bit.HDR.HLG.DD5.1-SWTYBLZ
Language : English
Default : Yes
Forced : No
Color range : Limited
Color primaries : BT.2020
Transfer characteristics : HLG
transfer_characteristics_Original : HLG / BT.2020 (10-bit)
Matrix coefficients : BT.2020 non-constant


Audio
ID : 2
Format : AC-3
Format/Info : Audio Coding 3
Commercial name : Dolby Digital
Codec ID : A_AC3
Duration : 54 min 1 s
Bit rate mode : Constant
Bit rate : 384 kb/s
Channel(s) : 6 channels
Channel layout : L R C LFE Ls Rs
Sampling rate : 48.0 kHz
Frame rate : 31.250 FPS (1536 SPF)
Compression mode : Lossy
Delay relative to video : 3 s 550 ms
Stream size : 148 MiB (2%)
Language : English
Service kind : Complete Main
Default : Yes
Forced : No


Text #1
ID : 3
Format : UTF-8
Codec ID : S_TEXT/UTF8
Codec ID/Info : UTF-8 Plain Text
Duration : 51 min 57 s
Bit rate : 57 b/s
Count of elements : 627
Stream size : 21.7 KiB (0%)
Language : English
Default : No
Forced : No


Text #2
ID : 4
Format : UTF-8
Codec ID : S_TEXT/UTF8
Codec ID/Info : UTF-8 Plain Text
Duration : 53 min 20 s
Bit rate : 58 b/s
Count of elements : 716
Stream size : 22.9 KiB (0%)
Title : SDH
Language : English
Default : No
Forced : No


蓝光高清网提示您  点击下方附件名称  马上开始下载

黑水仙4k Black.Narcissus.S01.2160p.WEBRip.x265.10bit.HDR.HLG.DD5.1.美剧下载

黑水仙4k Black.Narcissus.S01.2160p.WEBRip.x265.10bit.HDR.HLG.DD5.1【21.95 GB】

黑水仙4k Black.Narcissus.S01.2160p.WEBRip.x265.10bit.HDR.HLG.DD5.1-SWTYBLZ.torrent (文件大小:55.64 KB)


加入蓝光高清网VIP会员  无限制下载本站所有资源---点这里

资源下载、资源播放、字幕使用、无法下载等常见问题---点这里
回复

使用道具 举报

 

精彩评论6

正序浏览
feiyue 发表于 2021-1-2 22:21:19 | 显示全部楼层
 

天天访问蓝光高清网  天天打卡  习惯了
回复

使用道具 举报

 
公仆 发表于 2021-1-4 18:35:43 | 显示全部楼层
 
顶!!!!!!!!!!!!!!!!!!!!!!!!!!高清片源不好找啊!
回复

使用道具 举报

 
ggang1 发表于 2021-1-14 10:16:37 | 显示全部楼层
 

天天访问蓝光高清网  天天打卡  习惯了
回复

使用道具 举报

 
ggang1 发表于 2021-1-14 10:17:48 | 显示全部楼层
 

祝蓝光高清网越办越红火。
回复

使用道具 举报

 
爱过了 发表于 2021-1-15 19:27:20 | 显示全部楼层
 

感谢蓝光高清网提供的优质资源,希望网站越办越好。
回复

使用道具 举报

 
gdlmxia 发表于 2021-1-20 19:30:52 | 显示全部楼层
 
太好啦&萬分感謝版主的無私發佈分享%
回复

使用道具 举报

 
您需要登录后才可以回帖 登录 | 立即注册

本版积分规则

0关注

2粉丝

93704帖子

  • 版块推荐
  • 百宝箱

电影推荐

更多+

热门电影

更多+

下载APP 签到更便捷

官方微信

手机APP

蓝光高清网

专注4k电影、4k视频、VR视频、高清电影、蓝光原盘资源

本站内容部分由用户自主分享和转载自互联网,转载目的在于传递更多信息,并不代表本网赞同其观点和对其真实性负责。

如有侵权、违反国家法律政策行为,请联系我们,我们会第一时间及时清除和处理!

举报反馈邮箱:lanniao@1080pro.net

Copyright   ©2019-2020  蓝光高清网    |网站地图