开通会员
全站资源畅享下载
4k原盘抢先下载
免高清币下载
会员用户组特权
开通会员
上传
收藏
首页
开启左侧

[4K高清美剧] 眼镜蛇 第三季4k Cobra.Kai.S03.2160p.美剧下载—48.51 GB

[复制链接]
MYadminwl*# 发表于 2021-1-6 17:44:44 | 显示全部楼层 |阅读模式 打印 上一主题 下一主题

眼镜蛇(上映日期:2021)4K(3840x2160)

简介  经典功夫喜剧系列电影《龙威小子》故事未完,YouTube meijubar.net Red 打造续集影集《Cobra Kai》正式预告上线。34 年前在《龙威小子2》展开世纪对决的丹尼尔与强尼,时隔多年将再度交手,当时饰演两人的雷夫·马奇欧(Ralph Macchio)与威廉·萨巴卡(William Zabka)回归演出相同角色。
导演乔什·贺德 / 乔恩·赫维兹 / 海登·施拉兹伯格
主演克里斯·加恩 / 拉尔夫·马基奥 / 索洛·马里多纳 / 里克·佩雷斯 / 肖恩·韦斯顿·萨克
类型喜剧 动作 剧情 运动 
地区美国
声道5.1声道
编码其他DD
状态第三季(完结)
评分豆瓣7.1分
 

加入蓝光高清网,轻松下载最新4k资源

您需要 登录 才可以下载或查看,没有帐号?立即注册

x
影片参数
眼镜蛇道馆/眼镜蛇 第三季4k Cobra.Kai.S03.2160p.NF.WEBRip.DDP5.1.x265.美剧信息
Video
ID : 1
Format : HEVC
Format/Info : High Efficiency Video Coding
Format profile : Main 10@L5.1@High
Codec ID : V_MPEGH/ISO/HEVC
Duration : 41 min 0 s
Bit rate : 24.0 Mb/s
Width : 3 840 pixels
Height : 2 160 pixels
Display aspect ratio : 16:9
Frame rate mode : Constant
Frame rate : 23.976 (24000/1001) FPS
Color space : YUV
Chroma subsampling : 4:2:0
Bit depth : 10 bits
Bits/(Pixel*Frame) : 0.121
Stream size : 6.89 GiB (97%)
Writing library : x265 3.4+26-ga82c6c7a7:[Windows][GCC 10.2.1][64 bit] 10bit
Encoding settings : cpuid=1111039 / frame-threads=4 / numa-pools=16 / wpp / no-pmode / no-pme / no-psnr / no-ssim / log-level=2 / input-csp=1 / input-res=3840x2160 / interlace=0 / total-frames=59004 / level-idc=51 / high-tier=1 / uhd-bd=0 / ref=5 / no-allow-non-conformance / repeat-headers / annexb / aud / hrd / info / hash=0 / no-temporal-layers / open-gop / min-keyint=23 / keyint=250 / gop-lookahead=0 / bframes=8 / b-adapt=2 / b-pyramid / bframe-bias=0 / rc-lookahead=40 / lookahead-slices=8 / scenecut=40 / hist-scenecut=0 / radl=0 / no-splice / no-intra-refresh / ctu=64 / min-cu-size=8 / no-rect / no-amp / max-tu-size=32 / tu-inter-depth=4 / tu-intra-depth=4 / limit-tu=4 / rdoq-level=0 / dynamic-rd=0.00 / no-ssim-rd / signhide / no-tskip / nr-intra=0 / nr-inter=0 / no-constrained-intra / strong-intra-smoothing / max-merge=4 / limit-refs=1 / no-limit-modes / me=1 / subme=5 / merange=57 / temporal-mvp / no-frame-dup / no-hme / weightp / weightb / no-analyze-src-pics / deblock=-3:-3 / no-sao / no-sao-non-deblock / rd=4 / selective-sao=0 / early-skip / rskip / no-fast-intra / no-tskip-fast / no-cu-lossless / b-intra / no-splitrd-skip / rdpenalty=0 / psy-rd=2.00 / psy-rdoq=0.00 / no-rd-refine / no-lossless / cbqpoffs=0 / crqpoffs=0 / rc=crf / crf=19.0 / qcomp=0.60 / qpstep=4 / stats-write=0 / stats-read=0 / vbv-maxrate=160000 / vbv-bufsize=160000 / vbv-init=0.9 / min-vbv-fullness=50.0 / max-vbv-fullness=80.0 / crf-max=0.0 / crf-min=0.0 / ipratio=1.30 / pbratio=1.20 / aq-mode=1 / aq-strength=0.80 / no-cutree / zone-count=0 / no-strict-cbr / qg-size=32 / no-rc-grain / qpmax=69 / qpmin=0 / no-const-vbv / sar=1 / overscan=0 / videoformat=5 / range=0 / colorprim=1 / transfer=1 / colormatrix=1 / chromaloc=0 / display-window=0 / cll=0,0 / min-luma=0 / max-luma=1023 / log2-max-poc-lsb=8 / vui-timing-info / vui-hrd-info / slices=1 / no-opt-qp-pps / no-opt-ref-list-length-pps / no-multi-pass-opt-rps / scenecut-bias=0.05 / hist-threshold=0.03 / no-opt-cu-delta-qp / no-aq-motion / no-hdr10 / no-hdr10-opt / no-dhdr10-opt / no-idr-recovery-sei / analysis-reuse-level=0 / analysis-save-reuse-level=0 / analysis-load-reuse-level=0 / scale-factor=0 / refine-intra=0 / refine-inter=0 / refine-mv=1 / refine-ctu-distortion=0 / no-limit-sao / ctu-info=0 / no-lowpass-dct / refine-analysis-type=0 / copy-pic=1 / max-ausize-factor=1.0 / no-dynamic-refine / no-single-sei / no-hevc-aq / no-svt / no-field / qp-adaptation-range=1.00 / no-scenecut-aware-qpconformance-window-offsets / right=0 / bottom=0 / decoder-max-rate=0 / no-vbv-live-multi-pass
Default : Yes
Forced : No
Color range : Limited
Color primaries : BT.709
Transfer characteristics : BT.709
Matrix coefficients : BT.709


Audio
ID : 2
Format : E-AC-3
Format/Info : Enhanced AC-3
Commercial name : Dolby Digital Plus
Codec ID : A_EAC3
Duration : 41 min 1 s
Bit rate mode : Constant
Bit rate : 640 kb/s
Channel(s) : 6 channels
Channel layout : L R C LFE Ls Rs
Sampling rate : 48.0 kHz
Frame rate : 31.250 FPS (1536 SPF)
Compression mode : Lossy
Stream size : 188 MiB (3%)
Language : English
Service kind : Complete Main
Default : Yes
Forced : No


Text #1
ID : 3
Format : UTF-8
Codec ID : S_TEXT/UTF8
Codec ID/Info : UTF-8 Plain Text
Duration : 37 min 50 s
Bit rate : 56 b/s
Count of elements : 515
Stream size : 15.8 KiB (0%)
Title : SDH
Language : English
Default : No
Forced : No


蓝光高清网提示您  点击下方附件名称  马上开始下载

眼镜蛇道馆/眼镜蛇 第三季4k Cobra.Kai.S03.2160p.NF.WEBRip.DDP5.1.x265.美剧下载

眼镜蛇 第三季4k Cobra.Kai.S03.2160p.NF.WEBRip.DDP5.1.x265【48.51 GB】

眼镜蛇 第三季4k Cobra.Kai.S03.2160p.NF.WEBRip.DDP5.1.x265-NTb[rartv].torrent (文件大小:122.71 KB)


回复

使用道具 举报

 

精彩评论5

正序浏览
Hanzo.sdv 发表于 2021-1-9 19:50:42 | 显示全部楼层
 

Cobra Kai的伟大季节,期待下一部分与她一起享受。
谢谢
回复

使用道具 举报

 
ggang1 发表于 2021-1-12 09:50:31 | 显示全部楼层
 

祝蓝光高清网越办越红火。
回复

使用道具 举报

 
ggang1 发表于 2021-1-14 10:19:16 | 显示全部楼层
 

感谢蓝光高清网提供的优质资源,希望网站越办越好。
回复

使用道具 举报

 
小蜻蜓 发表于 2021-1-17 22:58:55 | 显示全部楼层
 
祝越来越好!!!!
回复

使用道具 举报

 
zq0633 发表于 2021-1-20 09:31:09 | 显示全部楼层
 
谢谢楼主
回复

使用道具 举报

 
您需要登录后才可以回帖 登录 | 立即注册

本版积分规则

0关注

1粉丝

409帖子

  • 版块推荐
  • 百宝箱

电影推荐

更多+

热门电影

更多+

下载APP 签到更便捷

官方微信

手机APP

蓝光高清网

专注4k电影、4k视频、VR视频、高清电影、蓝光原盘资源

本站内容部分由用户自主分享和转载自互联网,转载目的在于传递更多信息,并不代表本网赞同其观点和对其真实性负责。

如有侵权、违反国家法律政策行为,请联系我们,我们会第一时间及时清除和处理!

举报反馈邮箱:lanniao@1080pro.net

Copyright   ©2019-2020  蓝光高清网    |网站地图